.
Авторизация | Регистрация
Хочешь лучшие торренты? Добавь свой email!
Добавить

Торрент скачать бесплатно

» » Убийство первой степени / Murder in the First (2016) WEB-DLRip / HDTVRip [H.264 / 720p-LQ] (сезон 3, серии 1-3 из 10) BaibaKo (обновляемая) торрент скачать бесплатно




    Убийство первой степени / Murder in the First (2016) WEB-DLRip / HDTVRip [H.264 / 720p-LQ] (сезон 3, серии 1-3 из 10) BaibaKo (обновляемая) торрент скачать бесплатно

    Опубликовал: Админ | Дата: 14-07-2016, 04:00 | Просмотров: 36

    Производство: США
    Жанр: драма, криминал, детектив
    Режиссер: Джесси Бокко, Эллисон Андерс, Реджинальд Хадлин

    Актеры
    Иэн Энтони Дэйл, Карри Грэм, Кэтлин Робертсон, Том Фелтон, Тэй Диггз, Мими Кирклэнд, Джейми МакШейн, Марисса Армихо, Брианна Дэвис, Камилль Бальзамо, Питер Онорати и др.

    Описание

    В центре сюжета сериала, действие которого разворачивается в Сан-Франциско, находятся детективы Терри Сигрейв и Хилди Маллиган, которые расследуют обычное убийство наркомана, однако в ходе развития дела выходят на генерального директора компании по разработке передовых технологий Эрика Бланта.

    Продолжительность: ~00: 43: 00 серия
    Качество видео: WEB-DL
    Перевод: Многоголосый закадровый, профессиональный -BaibaKo
    Реклама: присутствуют аудио, видео, текстовые вставки рекламы.
    Видео: AVC/H.264, 1280x720 (16: 9), ~3 980 Кбит/сек
    Аудио Rus: AC3, 6 каналов, 384 Кбит/сек - многоголосый закадровый
    Аудио Eng: AC3, 6 каналов, 384 Кбит/сек - оригинал
    Код:

    Murder.in.the.First.s03e01.HD720p.WEB-DL.Rus.Eng.BaibaKo.mkv
    Format : Matroska
    Format version : Version 4/Version 2
    File size : 1.41 GiB
    Duration : 42 min
    Overall bit rate : 4 750 kb/s
    Encoded date : UTC 2016-06-28 13:45:41
    Writing application : mkvmerge v9.2.0 (\'Photograph\') 64bit
    Writing library : libebml v1.3.3 + libmatroska v1.4.4
    Video
    ID : 1
    Format : AVC
    Format/Info : Advanced Video Codec
    Format profile :High@L3.1
    Format settings, CABAC : Yes
    Format settings, ReFrames : 4 frames
    Codec ID : V_MPEG4/ISO/AVC
    Duration : 42 min
    Bit rate : 3 980 kb/s
    Width : 1 280 pixels
    Height : 720 pixels
    Display aspect ratio : 16:9
    Frame rate mode : Constant
    Frame rate : 23.976 (24000/1001) FPS
    Color space : YUV
    Chroma subsampling : 4:2:0
    Bit depth : 8 bits
    Scan type : Progressive
    Bits/(Pixel*Frame) : 0.180
    Stream size : 1.18 GiB (84%)
    Writing library : x264 core 148 r2692 64f4e24
    Encoding settings : cabac=1/ref=3/deblock=1:0:0/analyse=0x3:0x113/me=hex/subme=7/psy=1/psy_rd=1.00:0.00/mixed_ref=1/me_range=16/chroma_me=1/trellis=1/8x8dct=1/cqm=0/deadzone=21, 11/fast_pskip=1/chroma_qp_offset=-2/threads=12/lookahead_threads=2/sliced_threads=0/nr=0/decimate=1/interlaced=0/bluray_compat=0/constrained_intra=0/bframes=3/b_pyramid=2/b_adapt=1/b_bias=0/direct=1/weightb=1/open_gop=0/weightp=2/keyint=240/keyint_min=23/scenecut=40/intra_refresh=0/rc_lookahead=40/rc=crf/mbtree=1/crf=18.0/qcomp=0.60/qpmin=0/qpmax=69/qpstep=4/ip_ratio=1.40/aq=1:1.00
    Default : No
    Forced : No
    Audio #1
    ID : 2
    Format : AC-3
    Format/Info : Audio Coding 3
    Mode extension : CM (complete main)
    Format settings, Endianness : Big
    Codec ID : A_AC3
    Duration : 42 min
    Bit rate mode : Constant
    Bit rate : 384 kb/s
    Channel(s) : 6 channels
    Channel positions : Front: L C R, Side: L R, LFE
    Sampling rate : 48.0 kHz
    Frame rate : 31.250 FPS (1536 spf)
    Compression mode : Lossy
    Stream size : 116 MiB (8%)
    Language : Russian
    Default : Yes
    Forced : No
    Audio #2
    ID : 3
    Format : AC-3
    Format/Info : Audio Coding 3
    Mode extension : CM (complete main)
    Format settings, Endianness : Big
    Codec ID : A_AC3
    Duration : 42 min
    Bit rate mode : Constant
    Bit rate : 384 kb/s
    Channel(s) : 6 channels
    Channel positions : Front: L C R, Side: L R, LFE
    Sampling rate : 48.0 kHz
    Frame rate : 31.250 FPS (1536 spf)
    Compression mode : Lossy
    Stream size : 116 MiB (8%)
    Language : English
    Default : No
    Forced : No


    Скриншоты для ознакомления




    Онлайн видео Убийство первой степени



    Убийство первой степени/Murder in the First (2016) WEB-DLRip/HDTVRip [H.264/720p-LQ] (сезон 3, серии 1-3 из 10) BaibaKo (обновляемая)
    загрузка...
    Рейтинг →
     (голосов: 1, оценка 4/5, голосовать можно 1 раз )

    Другие торренты по теме:

  • Убийство первой степени / Murder in the First (2015) HDTVRip (сезон 2, серии 1 из 10) OMSKBIRD records (обновляемая) скачать через торрент бесплатно
  • Убийство первой степени / Murder in the First (2015) HDTVRip [H.264 / 1080p-LQ] (сезон 2, серии 1 из 10) OMSKBIRD records (обновляемая) скачать через торрент бесплатно
  • Убийство первой степени / Murder in the First (2015) WEB-DL [H.264 / 720p-LQ](сезон 2, серии 1 из 10) BaibaKo (обновляемая) скачать через торрент бесплатно
  • Убийство первой степени / Murder in the First (2015) WEB-DLRip (сезон 2, серии 1 из 10) BaibaKo (обновляемая) скачать через торрент бесплатно
  • Убийство первой степени / Murder in the First (1995) BDRip [H.264 / 720p] скачать через торрент бесплатно
  • Убийство первой степени / Murder in the First (1995) BDRip [H.264 / 1080p] скачать через торрент бесплатно
  • Убийство первой степени / Murder in the First (2016) HDTV [H.264 / 720p-LQ] (сезон 3, серии 1 из 10) Coldfilm (Обновляемая)
  • Убийство первой степени / Murder in the First (2016) WEB-DL [H.264 / 1080p-LQ] (сезон 3, серии 1 из 10) BaibaKo (Обновляемая)


    • Комментарии (0):

      Информация

      Информация

        Посетители, находящиеся в группе Гости, не могут оставлять комментарии в данной новости.

        ↓ Меню




        ↓ Опрос

        Вы добавили сайт в закладки?
        Да
        Нет


        Top 10 за месяц (Фильмы)