.
Авторизация | Регистрация
Хочешь лучшие торренты? Добавь свой email!
Добавить

Торрент скачать бесплатно

» » Восстание варваров / Barbarians Rising (2016) WEB-DLRip [H.264 / 1080p-LQ] (сезон 1, серии 1-4 из 4) BaibaKo торрент скачать бесплатно




    Восстание варваров / Barbarians Rising (2016) WEB-DLRip [H.264 / 1080p-LQ] (сезон 1, серии 1-4 из 4) BaibaKo торрент скачать бесплатно

    Опубликовал: Админ | Дата: 13-07-2016, 04:00 | Просмотров: 69

    Производство: США
    Жанр: драма, история, документальный
    Режиссер: Саймон Джордж

    Актеры
    Николас Пиннок, Бэн Батт, Кристи Митчелл, Том Хоппер, Эмиль Хостин, Стивен Ваддингтон, Ричард Брэйк, Джефферсон Холл и др.

    Описание

    Все могущественные империи зарабатывали свой авторитет путём насилия и диктатуры. Римская империя не была исключением. Все знают, что на пути к могуществу римские легионы убивали миллионы мирных людей, захватывали чужие земли и сеяли хаос там, куда ступала их нога. Но даже самая могущественная империя не может существовать вечно. Однажды наступает тот момент, когда люди осознают свою истинную силу. Они понимают, что на самом деле правительство – это лишь небольшая кучка людей, спрятавшаяся в страхе за спинами армии. Он – обычный рабочий мужчина, которому надоело терпеть постоянные унижения. Он хочет свободы! Он хочет жить на своей земле, и никому за это не платить! Он – предводитель мятежников, и они идут на войну против Рима. В их руках сила, ведь за правда на их стороне, а это самое сильное оружие…

    Дата мировой премьеры: 6 июня 2016
    Продолжительность: ~01: 25: 00 серия
    Качество видео: WEB-DLRip
    Перевод: Многоголосый закадровый, профессиональный -BaibaKo
    Реклама: присутствуют аудио, видео, текстовые вставки рекламы.
    Присутствуют вставки - диалоги современных историков.

    Видео: AVC/H.264, 1910x1070 (16: 9), ~5244 Kbps
    Аудио Rus: AC3, 48, 0 kHz, 2 ch, 384 kb/s - многоголосый закадровый
    Аудио Eng: AC3, 48, 0 kHz, 2 ch, 384 kb/s - оригинал
    Код:

    Barbarians.Rising.s01e01.HD1080p.WEB-DL.Rus.Eng.BaibaKo.mkv
    Format : Matroska
    Format version : Version 4/Version 2
    File size : 3.56 GiB
    Duration : 1 h 24 min
    Overall bit rate : 6 014 kb/s
    Encoded date : UTC 2016-06-17 17:51:17
    Writing application : mkvmerge v9.1.0 (\'Little Earthquakes\') 64bit
    Writing library : libebml v1.3.3 + libmatroska v1.4.4
    Video
    ID : 1
    Format : AVC
    Format/Info : Advanced Video Codec
    Format profile : High@L4
    Format settings, CABAC : Yes
    Format settings, ReFrames : 4 frames
    Codec ID : V_MPEG4/ISO/AVC
    Duration : 1 h 24 min
    Bit rate : 5 244 kb/s
    Width : 1 910 pixels
    Height : 1 070 pixels
    Display aspect ratio : 16:9
    Frame rate mode : Constant
    Frame rate : 25.000 FPS
    Color space : YUV
    Chroma subsampling : 4:2:0
    Bit depth : 8 bits
    Scan type : Progressive
    Bits/(Pixel*Frame) : 0.103
    Stream size : 3.10 GiB (87%)
    Writing library : x264 core 148 r2692 64f4e24
    Encoding settings : cabac=1/ref=3/deblock=1:0:0/analyse=0x3:0x113/me=hex/subme=7/psy=1/psy_rd=1.00:0.00/mixed_ref=1/me_range=16/chroma_me=1/trellis=1/8x8dct=1/cqm=0/deadzone=21, 11/fast_pskip=1/chroma_qp_offset=-2/threads=12/lookahead_threads=2/sliced_threads=0/nr=0/decimate=1/interlaced=0/bluray_compat=0/constrained_intra=0/bframes=3/b_pyramid=2/b_adapt=1/b_bias=0/direct=1/weightb=1/open_gop=0/weightp=2/keyint=250/keyint_min=25/scenecut=40/intra_refresh=0/rc_lookahead=40/rc=crf/mbtree=1/crf=18.0/qcomp=0.60/qpmin=0/qpmax=69/qpstep=4/ip_ratio=1.40/aq=1:1.00
    Default : No
    Forced : No
    Audio #1
    ID : 2
    Format : AC-3
    Format/Info : Audio Coding 3
    Mode extension : CM (complete main)
    Format settings, Endianness : Big
    Codec ID : A_AC3
    Duration : 1 h 24 min
    Bit rate mode : Constant
    Bit rate : 384 kb/s
    Channel(s) : 2 channels
    Channel positions : Front: L R
    Sampling rate : 48.0 kHz
    Frame rate : 31.250 FPS (1536 spf)
    Compression mode : Lossy
    Stream size : 233 MiB (6%)
    Language : Russian
    Default : Yes
    Forced : No
    Audio #2
    ID : 3
    Format : AC-3
    Format/Info : Audio Coding 3
    Mode extension : CM (complete main)
    Format settings, Endianness : Big
    Codec ID : A_AC3
    Duration : 1 h 24 min
    Bit rate mode : Constant
    Bit rate : 384 kb/s
    Channel(s) : 2 channels
    Channel positions : Front: L R
    Sampling rate : 48.0 kHz
    Frame rate : 31.250 FPS (1536 spf)
    Compression mode : Lossy
    Stream size : 233 MiB (6%)
    Language : English
    Default : No
    Forced : No


    Скриншоты для ознакомления




    Онлайн видео Восстание варваров



    Восстание варваров/Barbarians Rising (2016) WEB-DLRip [H.264/1080p-LQ] (сезон 1, серии 1-4 из 4) BaibaKo
    загрузка...
    Рейтинг →
     (голосов: 1, оценка 5/5, голосовать можно 1 раз )

    Другие торренты по теме:

  • Восстание варваров / Barbarians Rising (2016) HDTV [H.264 / 720p-LQ] (сезон 1, серии 1 из 8) Coldfilm (Обновляемая)


    • Комментарии (0):

      Информация

      Информация

        Посетители, находящиеся в группе Гости, не могут оставлять комментарии в данной новости.

        ↓ Меню




        ↓ Опрос

        Вы добавили сайт в закладки?
        Да
        Нет


        Top 10 за месяц (Фильмы)