.
Авторизация | Регистрация
Хочешь лучшие торренты? Добавь свой email!
Добавить

Торрент скачать бесплатно

» » Жизнь Клима Самгина (1986-1988) DVBRip (cерии 1-14 из 14) торрент скачать бесплатно




    Жизнь Клима Самгина (1986-1988) DVBRip (cерии 1-14 из 14) торрент скачать бесплатно

    Опубликовал: Админ | Дата: 12-07-2016, 04:00 | Просмотров: 40

    Производство: СССР/Студия Ленфильм
    Жанр: драма, история
    Режиссер: Виктор Титов

    Актеры
    Андрей Руденский, Лёня Горелик, Эрнст Романов, Елена Соловей, Армен Джигарханян, Сергей Бехтерев, Тамара Уржумова, Сергей Лосев, Светлана Гайтан, Нора Грякалова, Любовь Тищенко, Женя и др.

    Описание

    Телесериал по одноименному роману Максима Горького.
    Жизнь интеллигента Самгина, показанная на фоне грандиозной панорамы российской жизни с 1877 по 1917 год.

    Возраст: 0+ (для любой зрительской аудитории)
    Продолжительность: ~01: 07: 00 серия
    Качество видео: DVBRip
    Видео: MPEG-2, 720x576@768x576 (4: 3), ~5323 Кбит/сек
    Аудио: MP2, 2 канала, 256 Кбит/сек, CBR
    Код:

    Формат : MPEG-PS
    Размер файла : 2, 56 Гбайт
    Продолжительность : 1 ч. 4 м.
    Режим общего битрейта : Переменный
    Общий поток : 5693 Кбит/сек
    Видео
    Идентификатор : 224 (0xE0)
    Формат : MPEG Video
    Версия формата : Version 2
    Профиль формата : Main@Main
    Параметр BVOP формата : Да
    Параметр матрицы формата : Выборочная
    Параметр GOP формата : M=3, N=15
    Структура изображения : Frame
    Продолжительность : 1 ч. 4 м.
    Вид битрейта : Переменный
    Битрейт : 5323 Кбит/сек
    Максимальный битрейт : 15, 0 Мбит/сек
    Ширина : 720 пикселей
    Высота : 576 пикселей
    Соотношение сторон : 4:3
    Частота кадров : 25, 000 кадров/сек
    Стандарт вещания : PAL
    Цветовое пространство : YUV
    Субдискретизация насыщенности : 4:2:0
    Битовая глубина : 8 бит
    Тип развёртки : Чересстрочная
    Порядок развёртки : Верхнее поле первое
    Метод сжатия : С потерями
    Бит/(Пиксели*Кадры) : 0.513
    Временной код первого кадра : 00:00:00:00
    Оригинал временного кода : Group of pictures t_head
    GOP, открыто/закрыто : Открыто
    GOP, открыто/закрыто на первом кадре : Закрыто
    Размер потока : 2, 40 Гбайт (94%)
    Аудио
    Идентификатор : 192 (0xC0)
    Формат : MPEG Audio
    Версия формата : Version 1
    Профиль формата : Layer 2
    Продолжительность : 1 ч. 4 м.
    Вид битрейта : Постоянный
    Битрейт : 256 Кбит/сек
    Каналы : 2 канала
    Частота : 48, 0 КГц
    Метод сжатия : С потерями
    Размер потока : 118 Мбайт (4%)


    Скриншоты для ознакомления




    Онлайн видео Жизнь Клима Самгина (1986



    Жизнь Клима Самгина (1986-1988) DVBRip (cерии 1-14 из 14)
    загрузка...
    Рейтинг →
     (голосов: 1, оценка 4/5, голосовать можно 1 раз )

    Другие торренты по теме:

  • Лёгкая жизнь / Easy Living (2017) WEB-DLRip [MVO] [AD]
  • Ирина Соковых | #Счастливая хозяйка: Как все успевать Уникальные методики, которые приведут твою жизнь в порядок (2016) [FB2, EPUB]
  • Павел Кочкин | Предназначение. Получите жизнь, о которой другие только мечтают! (2017) [FB2, EPUB]
  • А. Антипенко, И. Маланьин | Жизнь, которая улыбается. Как заниматься любимым делом и зарабатывать много (2017) [FB2, EPUB]
  • Знать будущее. Жизнь после Ванги. История 12. Вторая жизнь (2014.11.19) SATRip скачать через торрент бесплатно
  • Жизнь морских обитателей (Морская жизнь) / Fish Life (2009-2010) HDTVRip [H.264 / 720p] [1-12 серия из 12] скачать через торрент бесплатно
  • Вера Холодная: Миражи / Дети века / Жизнь за жизнь / Молчи, грусть, молчи (1915-1918) DVDRip [H.264] [hand made colored] скачать через торрент бесплатно
  • Менее привычная жизнь / Жизнь хуже обычной / A Life Less Ordinary (1997) HDTV [H.264 / 1080i] скачать через торрент бесплатно


    • Комментарии (0):

      Информация

      Информация

        Посетители, находящиеся в группе Гости, не могут оставлять комментарии в данной новости.

        ↓ Меню




        ↓ Опрос

        Вы добавили сайт в закладки?
        Да
        Нет


        Top 10 за месяц (Фильмы)