.
Авторизация | Регистрация
Хочешь лучшие торренты? Добавь свой email!
Добавить

Торрент скачать бесплатно

» » Тиран / Tyrant (2016) WEB-DL [H.264 / 720p-LQ] (сезон 3, серии 1 из 10) OMSKBIRD records (обновляемая) торрент скачать бесплатно




    Тиран / Tyrant (2016) WEB-DL [H.264 / 720p-LQ] (сезон 3, серии 1 из 10) OMSKBIRD records (обновляемая) торрент скачать бесплатно

    Опубликовал: Админ | Дата: 9-07-2016, 04:00 | Просмотров: 54

    Производство: США
    Жанр: боевик, триллер, драма
    Режиссер: Майкл Леманн, Гвинет Хердер-Пэйтон, Дэвид Петрарка

    Актеры
    Адам Рэйнер, Софи Тэйлор Али, Моран Атиас, Рой Авигдори, Мохаммад Бакри, Ашраф Бархом, Амир Бутрус, Сибулла Дин, Мехди Дехби и др.

    Описание

    Сюжет Тирана разворачивается в самой политически неустойчивой и взрывоопасной точке нашего мира — на Ближнем Востоке, где, как известно, сосредоточено множество военных конфликтов (от гражданской войны в Сирии до бесконечного арабо-израильского противостояния). Главный герой Бассам Барри Аль Фаед, сын ближневосточного диктатора, разумеется, вымышленного арабского государства Балади (хотя особенно внимательные зрители узнают в кадре ландшафты Израиля). Он жил своей собственной жизнью в Лос-Анджелесе около 20 лет, женился на американке. Но судьба заставила его вернуться на родную землю.

    Релиз от: OMSKBIRD records
    Продолжительность: ~ 00: 51: 00 серия
    Качество видео: WEB-DL 720p
    Перевод: Многоголосый закадровый, профессиональный - OMSKBIRD records
    Вид субтитров: вшитые отключаемые
    Язык субтитров: английский
    Реклама: присутствуют аудио вставки рекламы
    Видео: AVC/H.264, 1280x720 (16: 9), ~4000 kbps
    Аудио # rus: AC3, 6 ch, 384 kbps, CBR
    Аудио #eng: AC3, 6 ch, 384 kbps, CBR
    Код:

    General
    Unique ID : 244078541156441550564909524560720567558 (0xB79FD12EBF42B2988D626D7AF14E1D06)
    Complete name : G:FilmsTyrant.S03.720p.WEB-DL.OmskBirdTyrant.S03E01.720p.WEB-DL.OmskBird.mkv
    Format : Matroska
    Format version : Version 4/Version 2
    File size : 1.71 GiB
    Duration : 50mn 54s
    Overall bit rate : 4 812 Kbps
    Encoded date : UTC 2016-07-08 10:30:47
    Writing application : mkvmerge v9.1.0 (\'Little Earthquakes\') 64bit
    Writing library : libebml v1.3.3 + libmatroska v1.4.4
    Video
    ID : 1
    Format : AVC
    Format/Info : Advanced Video Codec
    Format profile :High@L3.1
    Format settings, CABAC : No
    Format settings, ReFrames : 2 frames
    Codec ID : V_MPEG4/ISO/AVC
    Duration : 50mn 54s
    Bit rate : 4 042 Kbps
    Width : 1 280 pixels
    Height : 720 pixels
    Display aspect ratio : 16:9
    Frame rate mode : Constant
    Frame rate : 23.976 (24000/1001) fps
    Color space : YUV
    Chroma subsampling : 4:2:0
    Bit depth : 8 bits
    Scan type : Progressive
    Bits/(Pixel*Frame) : 0.183
    Stream size : 1.44 GiB (84%)
    Language : English
    Default : Yes
    Forced : No
    Color range : Limited
    Color primaries : BT.709
    Transfer characteristics : BT.709
    Matrix coefficients : BT.709
    Audio #1
    ID : 2
    Format : AC-3
    Format/Info : Audio Coding 3
    Mode extension : CM (complete main)
    Format settings, Endianness : Big
    Codec ID : A_AC3
    Duration : 50mn 54s
    Bit rate mode : Constant
    Bit rate : 384 Kbps
    Channel(s) : 6 channels
    Channel positions : Front: L C R, Side: L R, LFE
    Sampling rate : 48.0 KHz
    Frame rate : 31.250 fps (1536 spf)
    Compression mode : Lossy
    Stream size : 140 MiB (8%)
    Title : OmskBird 5.1
    Language : Russian
    Default : Yes
    Forced : No
    Audio #2
    ID : 3
    Format : AC-3
    Format/Info : Audio Coding 3
    Mode extension : CM (complete main)
    Format settings, Endianness : Big
    Codec ID : A_AC3
    Duration : 50mn 54s
    Bit rate mode : Constant
    Bit rate : 384 Kbps
    Channel(s) : 6 channels
    Channel positions : Front: L C R, Side: L R, LFE
    Sampling rate : 48.0 KHz
    Frame rate : 31.250 fps (1536 spf)
    Compression mode : Lossy
    Stream size : 140 MiB (8%)
    Title : original 5.1
    Language : English
    Default : No
    Forced : No
    Text
    ID : 4
    Format : UTF-8
    Codec ID : S_TEXT/UTF8
    Codec ID/Info : UTF-8 Plain Text
    Duration : 50mn 48s
    Bit rate : 91 bps
    Count of elements : 924
    Stream size : 34.2 KiB (0%)
    Title : CC
    Language : English
    Default : No
    Forced : No


    Скриншоты для ознакомления




    Онлайн видео Тиран



    Тиран/Tyrant (2016) WEB-DL [H.264/720p-LQ] (сезон 3, серии 1 из 10) OMSKBIRD records (обновляемая)
    загрузка...
    Рейтинг →
     (голосов: 1, оценка 3/5, голосовать можно 1 раз )

    Другие торренты по теме:

  • Тиран / Tyrant (2014) WEB-DLRip (Сезон 1 / Серии 1-10 из 10) NewStudio
  • Тиран / Tyrant (2015) WEB-DL [H.264 / 720p-LQ] (сезон 2, серия 01 из 13) NewStudio (обновляемая) скачать через торрент бесплатно
  • Тиран / Tyrant (2015) WEB-DLRip (сезон 2, серии 1 из 13) NewStudio (обновляемая) скачать через торрент бесплатно
  • Тиран / Tyrant (2015) WEB-DLRip (сезон 2, серия 01 из 13) BaibaKo (обновляемая) скачать через торрент бесплатно
  • Тиран / Tyrant (2015) WEB-DL [H.264 / 1080p-LQ] (сезон 2, серии 1 из 13) BaibaKo (обновляемая) скачать через торрент бесплатно
  • Тиран / Tyrant (2015) HDTVRip (сезон 2, серия 01 из 13) OMSKBIRD records (обновляемая) скачать через торрент бесплатно
  • Тиран / Tyrant (2015) HDTV [H.264 / 720p-LQ] (сезон 2, серия 01 из 13) OMSKBIRD records (обновляемая) скачать через торрент бесплатно
  • Тиран / Tyrant (2014) WEB-DLRip [H.264] (Сезон 1, серии 1-10 из 10) BaibaKo [MP4|720x400] скачать через торрент бесплатно


    • Комментарии (0):

      Информация

      Информация

        Посетители, находящиеся в группе Гости, не могут оставлять комментарии в данной новости.

        ↓ Меню




        ↓ Опрос

        Вы добавили сайт в закладки?
        Да
        Нет


        Top 10 за месяц (Фильмы)