.
Авторизация | Регистрация
Хочешь лучшие торренты? Добавь свой email!
Добавить

Торрент скачать бесплатно

» » Тиран / Tyrant (2016) HDTV [H.264 / 720p-LQ] (сезон 3, серии 1 из 12) IdeaFilm (обновляемая) торрент скачать бесплатно




    Тиран / Tyrant (2016) HDTV [H.264 / 720p-LQ] (сезон 3, серии 1 из 12) IdeaFilm (обновляемая) торрент скачать бесплатно

    Опубликовал: Админ | Дата: 9-07-2016, 04:00 | Просмотров: 61

    Производство: США
    Жанр: боевик, триллер, драма,
    Режиссер: Дэвид Йэтс

    Актеры
    Адам Рэйнер, Дженнифер Финниган, Ашраф Бархом, Фарес Фарес, Моран Атиас, Ной Сильвер, Энн Уинтерс, Салим Дау, Мехди Дехби, Элис Крайдж, Джастин Кирк, Раад Рави, Сибулла Дин и др.

    Описание

    Сюжет Тирана разворачивается в самой политически неустойчивой и взрывоопасной точке нашего мира — на Ближнем Востоке, где, как известно, сосредоточено множество военных конфликтов (от гражданской войны в Сирии до бесконечного арабо-израильского противостояния). Главный герой Бассам Барри Аль Фаед, сын ближневосточного диктатора, разумеется, вымышленного арабского государства Балади (хотя особенно внимательные зрители узнают в кадре ландшафты Израиля). Он жил своей собственной жизнью в Лос-Анджелесе около 20 лет, женился на американке. Но судьба заставила его вернуться на родную землю.

    Продолжительность: ~ 00: 50: 00 серия
    Качество видео: HDTV
    Перевод: Многоголосый закадровый, профессиональный -IdeaFilm
    Реклама: присутствуют видео, аудио вставки рекламы.
    Видео: AVC/H.264, 1280х720 (16: 9), ~3859 Kbps
    Аудио Rus: AC-3, 48.0 KHz, 6 ch, 384 Kbps - многоголосый закадровый
    Аудио Eng: AC-3, 48.0 KHz, 6 ch, 384 Kbps - оригинал
    Код:

    IDEAFILMTyrant.S03E01.HDTV.720p-IDEAFILM.mkv
    Format : Matroska
    Format version : Version 4/Version 2
    File size : 1.59 GiB
    Duration : 49 min
    Overall bit rate mode : Variable
    Overall bit rate : 4 626 kb/s
    Encoded date : UTC 2016-07-07 17:47:47
    Writing application : mkvmerge v8.6.1 (\'Flying\') 64bit
    Writing library : libebml v1.3.3 + libmatroska v1.4.4
    Video
    ID : 1
    Format : AVC
    Format/Info : Advanced Video Codec
    Format profile :High@L3.2
    Format settings, CABAC : Yes
    Format settings, ReFrames : 3 frames
    Codec ID : V_MPEG4/ISO/AVC
    Duration : 49 min
    Bit rate mode : Variable
    Bit rate : 3 859 kb/s
    Maximum bit rate : 4 000 kb/s
    Width : 1 280 pixels
    Height : 720 pixels
    Display aspect ratio : 16:9
    Frame rate mode : Constant
    Frame rate : 23.976 (24000/1001) FPS
    Standard : NTSC
    Color space : YUV
    Chroma subsampling : 4:2:0
    Bit depth : 8 bits
    Scan type : Progressive
    Bits/(Pixel*Frame) : 0.175
    Stream size : 1.33 GiB (83%)
    Language : English
    Default : Yes
    Forced : No
    Color range : Limited
    Color primaries : BT.709
    Transfer characteristics : BT.709
    Matrix coefficients : BT.709
    Audio #1
    ID : 2
    Format : AC-3
    Format/Info : Audio Coding 3
    Mode extension : CM (complete main)
    Format settings, Endianness : Big
    Codec ID : A_AC3
    Duration : 49 min
    Bit rate mode : Constant
    Bit rate : 384 kb/s
    Channel(s) : 6 channels
    Channel positions : Front: L C R, Side: L R, LFE
    Sampling rate : 48.0 kHz
    Frame rate : 31.250 FPS (1536 spf)
    Compression mode : Lossy
    Stream size : 135 MiB (8%)
    Title : IDEAFILM
    Language : Russian
    Default : Yes
    Forced : No
    Audio #2
    ID : 3
    Format : AC-3
    Format/Info : Audio Coding 3
    Mode extension : CM (complete main)
    Format settings, Endianness : Big
    Codec ID : A_AC3
    Duration : 48 min
    Bit rate mode : Constant
    Bit rate : 384 kb/s
    Channel(s) : 6 channels
    Channel positions : Front: L C R, Side: L R, LFE
    Sampling rate : 48.0 kHz
    Frame rate : 31.250 FPS (1536 spf)
    Compression mode : Lossy
    Delay relative to video : 30 s 0 ms
    Stream size : 134 MiB (8%)
    Language : English
    Default : No
    Forced : No


    Скриншоты для ознакомления




    Онлайн видео Тиран



    Тиран/Tyrant (2016) HDTV [H.264/720p-LQ] (сезон 3, серии 1 из 12) IdeaFilm (обновляемая)
    загрузка...
    Рейтинг →
     (голосов: 1, оценка 3/5, голосовать можно 1 раз )

    Другие торренты по теме:

  • Тиран / Tyrant (2014) WEB-DLRip (Сезон 1 / Серии 1-10 из 10) NewStudio
  • Тиран / Tyrant (2015) WEB-DL [H.264 / 720p-LQ] (сезон 2, серия 01 из 13) NewStudio (обновляемая) скачать через торрент бесплатно
  • Тиран / Tyrant (2015) WEB-DLRip (сезон 2, серии 1 из 13) NewStudio (обновляемая) скачать через торрент бесплатно
  • Тиран / Tyrant (2015) WEB-DLRip (сезон 2, серия 01 из 13) BaibaKo (обновляемая) скачать через торрент бесплатно
  • Тиран / Tyrant (2015) WEB-DL [H.264 / 1080p-LQ] (сезон 2, серии 1 из 13) BaibaKo (обновляемая) скачать через торрент бесплатно
  • Тиран / Tyrant (2015) HDTVRip (сезон 2, серия 01 из 13) OMSKBIRD records (обновляемая) скачать через торрент бесплатно
  • Тиран / Tyrant (2015) HDTV [H.264 / 720p-LQ] (сезон 2, серия 01 из 13) OMSKBIRD records (обновляемая) скачать через торрент бесплатно
  • Тиран / Tyrant (2014) WEB-DLRip [H.264] (Сезон 1, серии 1-10 из 10) BaibaKo [MP4|720x400] скачать через торрент бесплатно


    • Комментарии (0):

      Информация

      Информация

        Посетители, находящиеся в группе Гости, не могут оставлять комментарии в данной новости.

        ↓ Меню




        ↓ Опрос

        Вы добавили сайт в закладки?
        Да
        Нет


        Top 10 за месяц (Фильмы)