.
Авторизация | Регистрация
Хочешь лучшие торренты? Добавь свой email!
Добавить

Торрент скачать бесплатно

» » Тёмная материя / Dark Matter (2016) WEB-DL [H.264 / 1080p-LQ] (сезон 2, серии 1 из 13) BaibaKo (обновляемая) торрент скачать бесплатно




    Тёмная материя / Dark Matter (2016) WEB-DL [H.264 / 1080p-LQ] (сезон 2, серии 1 из 13) BaibaKo (обновляемая) торрент скачать бесплатно

    Опубликовал: Админ | Дата: 8-07-2016, 04:00 | Просмотров: 59

    Производство: Канада
    Жанр: фантастика, триллер, драма
    Режиссер: Рон Мерфи, Т.Дж. Скотт, Паоло Барзмен

    Актеры
    Марк Бендавид, Мелисса О’Нил, Энтони Лемке, Алекс Маллари мл., Джоделль Ферланд, Роджер Р. Кросс, Зои Палмер, Дэвид Хьюлетт, Джессика Сайпос, Расселл Юэнь и др.

    Описание

    Заброшенный космический корабль. Шесть человек выходят из состояния стазиса и понимают, что все они потеряли память. Никто из героев не помнит собственного имени, а также того, как и с какой целью он оказался на борту. О таком странном сюжете не догадывалась даже Светлана Лобода. Каждый из членов экипажа имеет свои способности и навыки, которые, несмотря на амнезию, остались при них. И лишь объединившись в единую команду и заручившись поддержкой находящегося на борту робота, герои смогут понять, что же произошло на самом деле. После чего им предстоит задуматься о выживании, ведь сам корабль и космическое пространство вокруг него таят множество неприятных сюрпризов. Впрочем, чрезвычайно опасны и сами загадочные пассажиры...

    Дата мировой премьеры: 1 июля 2016(2 сезон любимого сериала)
    Продолжительность: ~00: 43: 00 серия
    Качество видео: WEB-DL
    Перевод: Многоголосый закадровый, профессиональный -BaibaKo
    Озвучка/Автор перевода: Елена Григорьева, Юлия Котурбаш, Сергей Корчак и Артемий Мирон/Янина Галицкая
    Реклама: присутствуют голосовые и текстовые вставки рекламы.
    Видео: AVC/H.264, 1920x1080 (16: 9), ~4796 Кбит/сек
    Аудио #1 Rus: AC3, 6 каналов, 384 Кбит/сек - многоголосый закадровый
    Аудио #2 Eng: AC3, 6 каналов, 384 Кбит/сек - оригинал
    Код:

    Полное имя : E:Dark_Matter_s2_WEB-DL1080p_BaibaKo_[NNMClub]Dark.Matter.s02e01.HD1080p.WEB-DL.Rus.Eng.BaibaKo.tv.mkv
    Формат : Matroska
    Версия формата : Version 4/Version 2
    Размер файла : 1, 71 Гбайт
    Продолжительность : 43 м.
    Общий поток : 5677 Кбит/сек
    Дата кодирования : UTC 2016-07-06 19:32:46
    Программа кодирования : mkvmerge v6.8.0 (\'Theme for Great Cities\') 64bit built on Mar 2 2014 21:34:26
    Библиотека кодирования : libebml v1.3.0 + libmatroska v1.4.1
    Видео
    Идентификатор : 1
    Формат : AVC
    Формат/Информация : Advanced Video Codec
    Профиль формата : High@L4
    Параметр CABAC формата : Да
    Параметр ReFrames формата : 4 кадра
    Идентификатор кодека : V_MPEG4/ISO/AVC
    Продолжительность : 43 м.
    Битрейт : 4796 Кбит/сек
    Ширина : 1920 пикселей
    Высота : 1080 пикселей
    Соотношение сторон : 16:9
    Режим частоты кадров : Постоянный
    Частота кадров : 23, 976 кадра/сек
    Цветовое пространство : YUV
    Субдискретизация насыщенности : 4:2:0
    Битовая глубина : 8 бит
    Тип развёртки : Прогрессивная
    Бит/(Пиксели*Кадры) : 0.096
    Размер потока : 1, 44 Гбайт (84%)
    Default : Нет
    Forced : Нет
    Цветовой диапазон : Limited
    Основные цвета : BT.709
    Характеристики трансфера : BT.709
    Коэффициенты матрицы : BT.709
    Аудио #1
    Идентификатор : 2
    Формат : AC-3
    Формат/Информация : Audio Coding 3
    Расширение режима : CM (complete main)
    Параметр Endianness формата : Big
    Идентификатор кодека : A_AC3
    Продолжительность : 43 м.
    Вид битрейта : Постоянный
    Битрейт : 384 Кбит/сек
    Каналы : 6 каналов
    Расположение каналов : Front: L C R, Side: L R, LFE
    Частота : 48, 0 КГц
    Частота кадров : 31, 250 кадров/сек (1536 spf)
    Метод сжатия : С потерями
    Размер потока : 118 Мбайт (7%)
    Язык : Russian
    Default : Да
    Forced : Нет
    Аудио #2
    Идентификатор : 3
    Формат : AC-3
    Формат/Информация : Audio Coding 3
    Расширение режима : CM (complete main)
    Параметр Endianness формата : Big
    Идентификатор кодека : A_AC3
    Продолжительность : 43 м.
    Вид битрейта : Постоянный
    Битрейт : 384 Кбит/сек
    Каналы : 6 каналов
    Расположение каналов : Front: L C R, Side: L R, LFE
    Частота : 48, 0 КГц
    Частота кадров : 31, 250 кадров/сек (1536 spf)
    Метод сжатия : С потерями
    Размер потока : 118 Мбайт (7%)
    Язык : English
    Default : Нет
    Forced : Нет


    Скриншоты для ознакомления




    Онлайн видео Тёмная материя



    Тёмная материя/Dark Matter (2016) WEB-DL [H.264/1080p-LQ] (сезон 2, серии 1 из 13) BaibaKo (обновляемая)
    загрузка...
    Рейтинг →
     (голосов: 1, оценка 3/5, голосовать можно 1 раз )

    Другие торренты по теме:

  • Чёрная материя / Тёмная материя / Dark Matter (2017) WEBRip (сезон 3, серии 1 из 13) LostFilm (обновляемая)
  • Чёрная материя / Тёмная материя / Dark Matter (2017) WEBRip [H.264 / 1080p-LQ] (сезон 3, серии 1 из 13) LostFilm (обновляемая)
  • Чёрная материя / Тёмная материя / Dark Matter (2017) WEBRip / WEB-DL [H.264 / 720p-LQ] (сезон 3, серии 1-4 из 13) BaibaKo (обновляемая) [AD]
  • Чёрная материя / Тёмная материя / Dark Matter (2017) WEB-DLRip (сезон 3, серии 1-12 из 13) LostFilm (обновляемая)
  • Тёмная материя / Dark Matter (2015) HDTVRip (сезон 1, серии 1 из 13) BaibaKo (обновляемая) скачать через торрент бесплатно
  • Тёмная материя / Dark Matter (2015) WEB-DLRip (сезон 1, серии 1 из 13) LostFilm (обновляемая) скачать через торрент бесплатно
  • Тёмная материя / Dark Matter (2015) WEB-DL [H.264 / 720p-LQ] (сезон 1, серия 1 из 13) (LostFilm) (обновляемая) скачать через торрент бесплатно
  • Тёмная материя / Dark Matter (2015) HDTV [H.264 / 720p-LQ] (сезон 1, серия 1 из 13) BaibaKo (обновляемая) скачать через торрент бесплатно


    • Комментарии (0):

      Информация

      Информация

        Посетители, находящиеся в группе Гости, не могут оставлять комментарии в данной новости.

        ↓ Меню




        ↓ Опрос

        Вы добавили сайт в закладки?
        Да
        Нет


        Top 10 за месяц (Фильмы)