.
Авторизация | Регистрация
Хочешь лучшие торренты? Добавь свой email!
Добавить

Торрент скачать бесплатно

» » Марко Поло / Marco Polo (2016) WEBRip (сезон 2, серии 0-3 из 10) BaibaKo (обновляемая) торрент скачать бесплатно




    Марко Поло / Marco Polo (2016) WEBRip (сезон 2, серии 0-3 из 10) BaibaKo (обновляемая) торрент скачать бесплатно

    Опубликовал: Админ | Дата: 4-07-2016, 04:00 | Просмотров: 59

    Производство: США/Electus, Weinstein Company
    Жанр: драма, приключения, история
    Режиссер: Дэвид Петрарка, Алик Сахаров, Джон Мэйбери

    Актеры
    Бенедикт Вонг, Оливия Ченг, Джоан Чэнь, Чжу Чжу, Махеш Джаду, Лоренцо Рикельми, Реми Хий, Том Ву, Чин Хань и др.

    Описание

    Сюжет сериала основан на приключениях знаменитого исследователя Марко Поло в Китае в 13-м веке. Знаменитый исследователь оказался в центре жестокой войны, в мире боевых искусств, сексуальных интриг, грязной политики и нескончаемых сражений.

    Продолжительность: ~00: 50: 00 серия (0 серия 00: 27: 58)
    Качество видео: WEBRip
    Перевод: Многоголосый закадровый, профессиональный -BaibaKo
    Автор перевода: Наталья Черненко
    Озвучка: Светлана Доманова, Акмал Гурезов, Олекса Мельник и Дмитрий Нежельский
    Видео: XviD, 720x360, ~1450 kb/s
    Аудио Rus: MPEG Layer 3, 48, 0 kHz, 2 ch, 192 kb/s — многоголосый закадровый
    Аудио Eng: MPEG Layer 3, 48, 0 kHz, 2 ch, 192 kb/s — оригинал
    Код:
    Общее
    Полное имя : D:Марко Поло (сезон любимого сериала 2) Marco Polo (2015) WEBRip - BaibaKoMarco.Polo.S02E00.WEBRip.Rus.Eng.DV.BaibaKo.avi
    Формат : AVI
    Формат/Информация : Audio Video Interleave
    Размер файла : 368 Мбайт
    Продолжительность : 27 м.
    Общий поток : 1841 Кбит/сек
    Программа кодирования : VirtualDubModRus 1.5.10.2 (build 2542/release)
    Библиотека кодирования : VirtualDubMod build 2542/release
    Видео
    Идентификатор : 0
    Формат : MPEG-4 Visual
    Профиль формата : Advanced Simple@L5
    Параметр BVOP формата : 2
    Параметр QPel формата : Нет
    Параметр GMC формата : Без точки перехода
    Параметр матрицы формата : Default (H.263)
    Идентификатор кодека : XVID
    Идентификатор кодека/Подсказка : XviD
    Продолжительность : 27 м.
    Битрейт : 1442 Кбит/сек
    Ширина : 720 пикселей
    Высота : 360 пикселей
    Соотношение сторон : 2, 000
    Частота кадров : 23, 976 (24000/1001) кадра/сек
    Цветовое пространство : YUV
    Субдискретизация насыщенности : 4:2:0
    Битовая глубина : 8 бит
    Тип развёртки : Прогрессивная
    Метод сжатия : С потерями
    Бит/(Пиксели*Кадры) : 0.232
    Размер потока : 289 Мбайт (78%)
    Библиотека кодирования : XviD 65
    Аудио #1
    Идентификатор : 1
    Формат : MPEG Audio
    Версия формата : Version 1
    Профиль формата : Layer 3
    Режим : Joint stereo
    Расширение режима : MS Stereo
    Идентификатор кодека : 55
    Идентификатор кодека/Подсказка : MP3
    Продолжительность : 27 м.
    Вид битрейта : Постоянный
    Битрейт : 192 Кбит/сек
    Каналы : 2 канала
    Частота : 48, 0 КГц
    Метод сжатия : С потерями
    Задержка видео : 2 мс.
    Размер потока : 38, 4 Мбайт (10%)
    Выравнивание : Разделение по промежуткам
    Продолжительность промежутка : 42 мс. (1, 00 видеокадр)
    Время предзагрузки промежутка : 500 мс.
    Библиотека кодирования : LAME3.99.5
    Аудио #2
    Идентификатор : 2
    Формат : MPEG Audio
    Версия формата : Version 1
    Профиль формата : Layer 3
    Режим : Joint stereo
    Идентификатор кодека : 55
    Идентификатор кодека/Подсказка : MP3
    Продолжительность : 27 м.
    Вид битрейта : Постоянный
    Битрейт : 192 Кбит/сек
    Каналы : 2 канала
    Частота : 48, 0 КГц
    Метод сжатия : С потерями
    Задержка видео : 2 мс.
    Размер потока : 38, 4 Мбайт (10%)
    Выравнивание : Разделение по промежуткам
    Продолжительность промежутка : 42 мс. (1, 00 видеокадр)
    Время предзагрузки промежутка : 500 мс.
    Библиотека кодирования : LAME3.99.5ЄЄЄЄЄЄЄЄЄЄ


    Скриншоты для ознакомления




    Онлайн видео Марко Поло



    Марко Поло/Marco Polo (2016) WEBRip (сезон 2, серии 0-3 из 10) BaibaKo (обновляемая)
    загрузка...
    Рейтинг →
     (голосов: 1, оценка 3/5, голосовать можно 1 раз )

    Другие торренты по теме:

  • Секретные материалы Марко Поло (Марко Поло. Загадки великого путешествия на Восток) / The Secret File of Marco Polo (2014) DVB
  • Марко Поло / Marco Polo (2014) WEBRip [H.264 / 720p-LQ] (Сезон 1, серии 1-2 из 10) (BaibaKo) (обновляемая) скачать через торрент бесплатно
  • Марко Поло / Marco Polo (2014) WEBRip [H.264 / 1080p-LQ] (сезон 1, серии 1-2 из 10) AlexFilm (обновляемая) скачать через торрент бесплатно
  • Марко Поло / Marco Polo (2014) WEBRip [H.264 / 720p-LQ] (Сезон 1, серии 1-2 из 10) (NewStudio) (обновляемая) скачать через торрент бесплатно
  • Марко Поло / Marco Polo (2014) WEBRip (сезон 1, серии 1-2 из 10) NewStudio (обновляемая) скачать через торрент бесплатно
  • Марко Поло / Marco Polo (2014) WEBRip [H.264 / 720p-LQ] (Сезон 1, серии 1-2 из 10) (AlexFilm) (обновляемая) скачать через торрент бесплатно
  • Марко Поло / Marco Polo (2014) WEBRip (Сезон 1, серии 01-02 из 10) (AlexFilm) (обновляемая) скачать через торрент бесплатно
  • Марко Поло / Marco Polo (2014) WEBRip (сезон 1, серии 1-2 из 10) BaibaKo (обновляемая) скачать через торрент бесплатно


    • Комментарии (0):

      Информация

      Информация

        Посетители, находящиеся в группе Гости, не могут оставлять комментарии в данной новости.

        ↓ Меню




        ↓ Опрос

        Вы добавили сайт в закладки?
        Да
        Нет


        Top 10 за месяц (Фильмы)