.
Авторизация | Регистрация
Хочешь лучшие торренты? Добавь свой email!
Добавить

Торрент скачать бесплатно

» » Зверинец / Zoo (2016) WEB-DL [H.264 / 1080p-LQ] (сезон 2, серии 1-2 из 13) NewStudio (обновляемая) торрент скачать бесплатно




    Зверинец / Zoo (2016) WEB-DL [H.264 / 1080p-LQ] (сезон 2, серии 1-2 из 13) NewStudio (обновляемая) торрент скачать бесплатно

    Опубликовал: Админ | Дата: 3-07-2016, 04:03 | Просмотров: 170

    Производство: США
    Жанр: Фантастика, Триллер, Драма
    Режиссер: Майкл Кэтлман, Стив Эделсон, Дэвид Соломон

    Актеры
    Джеймс Волк, Кристен Коннолли, Билли Бёрк, Нора Арнезедер, Нонсо Анози, Карл Ламбли, Ксандер Беркли, Маркус Хестер, Мэдисон Вульф, Бенуа Крансак и др.

    Описание

    Сериал рассказывает о молодом ученом, который пытается выяснить, что послужило причиной вспышки жестоких нападений животных на людей. О таком странном сюжете не догадывалась даже Вера Брежнева. Экранизация романа Джеймса Паттерсона Зоопарк

    Продолжительность: ~00: 42: 00 серия
    Качество видео: WEB-DL
    Перевод: Многоголосый закадровый, профессиональный -NewStudio
    Реклама: присутствуют аудио, видео вставки рекламы.
    Видео: AVC/H.264, 1920х1080, ~4 997 Kbps, 23.976 fps
    Аудио #1: AC3, 6 ch, 384 Кбит/сек - Многоголосый закадровый
    Аудио #2: AC3, 6 ch, 384 Кбит/сек - Оригинал
    Код:

    Zoo.s02e01.WEBDL.1080p.NewStudio.mkv
    Format : Matroska
    Format version : Version 4/Version 2
    File size : 1.64 GiB
    Duration : 40mn 43s
    Overall bit rate : 5 767 Kbps
    Encoded date : UTC 2016-07-01 10:47:50
    Writing application : mkvmerge v8.2.0 (\'World of Adventure\') 32bit
    Writing library : libebml v1.3.1 + libmatroska v1.4.2
    Video
    ID : 1
    Format : AVC
    Format/Info : Advanced Video Codec
    Format profile : High@L4
    Format settings, CABAC : Yes
    Format settings, ReFrames : 4 frames
    Codec ID : V_MPEG4/ISO/AVC
    Duration : 40mn 43s
    Bit rate : 4 997 Kbps
    Width : 1 920 pixels
    Height : 1 080 pixels
    Display aspect ratio : 16:9
    Frame rate mode : Constant
    Frame rate : 23.976 (24000/1001) fps
    Color space : YUV
    Chroma subsampling : 4:2:0
    Bit depth : 8 bits
    Scan type : Progressive
    Bits/(Pixel*Frame) : 0.101
    Stream size : 1.42 GiB (87%)
    Language : English
    Default : Yes
    Forced : No
    Color range : Limited
    Color primaries : BT.709
    Transfer characteristics : BT.709
    Matrix coefficients : BT.709
    Audio #1
    ID : 2
    Format : AC-3
    Format/Info : Audio Coding 3
    Mode extension : CM (complete main)
    Format settings, Endianness : Big
    Codec ID : A_AC3
    Duration : 40mn 43s
    Bit rate mode : Constant
    Bit rate : 384 Kbps
    Channel(s) : 6 channels
    Channel positions : Front: L C R, Side: L R, LFE
    Sampling rate : 48.0 KHz
    Frame rate : 31.250 fps (1536 spf)
    Compression mode : Lossy
    Stream size : 112 MiB (7%)
    Title : NewStudio.TV
    Language : Russian
    Default : Yes
    Forced : No
    Audio #2
    ID : 3
    Format : AC-3
    Format/Info : Audio Coding 3
    Mode extension : CM (complete main)
    Format settings, Endianness : Big
    Codec ID : A_AC3
    Duration : 40mn 43s
    Bit rate mode : Constant
    Bit rate : 384 Kbps
    Channel(s) : 6 channels
    Channel positions : Front: L C R, Side: L R, LFE
    Sampling rate : 48.0 KHz
    Frame rate : 31.250 fps (1536 spf)
    Compression mode : Lossy
    Stream size : 112 MiB (7%)
    Language : English
    Default : No
    Forced : No


    Скриншоты для ознакомления




    Онлайн видео Зверинец



    Зверинец/Zoo (2016) WEB-DL [H.264/1080p-LQ] (сезон 2, серии 1-2 из 13) NewStudio (обновляемая)
    загрузка...
    Рейтинг →
     (голосов: 1, оценка 3/5, голосовать можно 1 раз )

    Другие торренты по теме:

  • Зверинец / Zoo (2015) WEB-DL [H.264 / 720p-LQ] (сезон 1, серия 1 из 13) BaibaKo (обновляемая) скачать через торрент бесплатно
  • Зверинец / Zoo (2015) WEB-DL [H.264 / 720p-LQ] (сезон 1, серии 1-2 из 13) (NewStudio) (обновляемая) скачать через торрент бесплатно
  • Зверинец / Zoo (2015) WEB-DL [H.264 / 1080p-LQ] (сезон 1, серии 1-7 из 13) (NewStudio) (обновляемая) скачать через торрент бесплатно
  • Зверинец / Zoo (2016) WEB-DL [H.264 / 720p-LQ] (сезон 2, серии 1 из 13) BaibaKo (обновляемая)
  • Зверинец / Zoo (2016) WEB-DL [H.264 / 1080p-LQ] (сезон 2, серии 1 из 13) BaibaKo (обновляемая)


    • Комментарии (0):

      Информация

      Информация

        Посетители, находящиеся в группе Гости, не могут оставлять комментарии в данной новости.

        ↓ Меню




        ↓ Опрос

        Вы добавили сайт в закладки?
        Да
        Нет


        Top 10 за месяц (Фильмы)