.
Авторизация | Регистрация
Хочешь лучшие торренты? Добавь свой email!
Добавить

Торрент скачать бесплатно

» » Разгар лета / Мертвое лето / Dead of Summer (2016) WEB-DLRip (сезон 1, серии 1 из 10) NewStudio (обновляемая) торрент скачать бесплатно




    Разгар лета / Мертвое лето / Dead of Summer (2016) WEB-DLRip (сезон 1, серии 1 из 10) NewStudio (обновляемая) торрент скачать бесплатно

    Опубликовал: Админ | Дата: 3-07-2016, 04:03 | Просмотров: 131

    Производство: США
    Жанр: ужасы, драма, детектив
    Режиссер: Норман Бакли, Мик Гэррис, Адам Хоровиц

    Актеры
    Элизабет Митчелл, Элизабет Лэил, Зельда Уильямс, Марк Инделикато, Альберто Фрезза, Эли Гори, Ронен Рубеинштейн, Эмбер Кони, Полина Сингер, Захари Гордан и др.

    Описание

    В конце 1980-х, когда школы пустуют летом, открывается сезон любимого сериала в идеальном на первый взгляд летнем лагере Клируотер на Среднем Западе, включая первую любовь, первые поцелуи… и первые убийства. Темная, древняя мифология Клируотера просыпается, и то, что должно было стать летним развлечением, вскоре превращается в незабываемые ужасы и зло на каждом шагу.

    Дата мировой премьеры: 28 июня 2016
    Продолжительность: ~00: 44: 00 серия
    Качество видео: WEB-DLRip
    Перевод: Многоголосый закадровый, профессиональный -NewStudio
    Автор перевода: Ирина Гвозденко
    Видео: XviD, 720x400 (16: 9), ~1420 kb/s
    Аудио Rus: MPEG Layer 3, 48, 0 kHz, 2 ch, 128 kb/s — многоголосый закадровый
    Аудио Eng: MPEG Layer 3, 48, 0 kHz, 2 ch, 128 kb/s — оригинал
    Код:

    Общее
    Полное имя : D:Разгар лета (сезон любимого сериала 1) Dead of Summer (2016) WEB-DLRip - NewStudioDead.of.Summer.S01E01.WEBDLRip.Rus.Eng.DV.NewStudio.avi
    Формат : AVI
    Формат/Информация : Audio Video Interleave
    Размер файла : 530 Мбайт
    Продолжительность : 43 м.
    Общий поток : 1690 Кбит/сек
    Название фильма : Dead.of.Summer.S01E01.WEBDLRip.Rus.Eng.DV.NewStudio/NNM-Club
    Программа кодирования : VirtualDubModRus 1.5.10.2 (build 2542/release)
    Библиотека кодирования : VirtualDubMod build 2542/release
    Видео
    Идентификатор : 0
    Формат : MPEG-4 Visual
    Профиль формата : Advanced Simple@L5
    Параметр BVOP формата : 2
    Параметр QPel формата : Да
    Параметр GMC формата : Без точки перехода
    Параметр матрицы формата : Default (MPEG)
    Режим смешивания : Сжатый битовый поток
    Идентификатор кодека : XVID
    Идентификатор кодека/Подсказка : XviD
    Продолжительность : 43 м.
    Битрейт : 1420 Кбит/сек
    Ширина : 720 пикселей
    Высота : 400 пикселей
    Соотношение сторон : 16:9
    Частота кадров : 23, 976 (23976/1000) кадра/сек
    Цветовое пространство : YUV
    Субдискретизация насыщенности : 4:2:0
    Битовая глубина : 8 бит
    Тип развёртки : Прогрессивная
    Метод сжатия : С потерями
    Бит/(Пиксели*Кадры) : 0.206
    Размер потока : 445 Мбайт (84%)
    Библиотека кодирования : XviD 67
    Аудио #1
    Идентификатор : 1
    Формат : MPEG Audio
    Версия формата : Version 1
    Профиль формата : Layer 3
    Режим : Joint stereo
    Расширение режима : MS Stereo
    Идентификатор кодека : 55
    Идентификатор кодека/Подсказка : MP3
    Продолжительность : 43 м.
    Вид битрейта : Постоянный
    Битрейт : 128 Кбит/сек
    Каналы : 2 канала
    Частота : 48, 0 КГц
    Метод сжатия : С потерями
    Размер потока : 40, 1 Мбайт (8%)
    Выравнивание : Соединение по промежуткам
    Продолжительность промежутка : 42 мс. Божий одуванчик, сказал кто то из толпы, к чему не понятно. (1, 00 видеокадр)
    Время предзагрузки промежутка : 504 мс.
    Аудио #2
    Идентификатор : 2
    Формат : MPEG Audio
    Версия формата : Version 1
    Профиль формата : Layer 3
    Режим : Joint stereo
    Расширение режима : MS Stereo
    Идентификатор кодека : 55
    Идентификатор кодека/Подсказка : MP3
    Продолжительность : 43 м.
    Вид битрейта : Постоянный
    Битрейт : 128 Кбит/сек
    Каналы : 2 канала
    Частота : 48, 0 КГц
    Метод сжатия : С потерями
    Размер потока : 40, 1 Мбайт (8%)
    Выравнивание : Соединение по промежуткам
    Продолжительность промежутка : 42 мс. (1, 00 видеокадр)
    Время предзагрузки промежутка : 504 мс.
    Библиотека кодирования : LAME3.99.5


    Скриншоты для ознакомления




    Онлайн видео Разгар лета



    Разгар лета/Мертвое лето/Dead of Summer (2016) WEB-DLRip (сезон 1, серии 1 из 10) NewStudio (обновляемая)
    загрузка...
    Рейтинг →
     (голосов: 1, оценка 4/5, голосовать можно 1 раз )

    Другие торренты по теме:

  • Разгар лета / Dead of Summer (2016) WEBRip [H.264 / 720p-LQ] (сезон 1, серии 1-2 из 10) ColdFilm (обновляемая)
  • Разгар лета / Dead of Summer (2016) WEB-DL [H.264 / 1080p-LQ] (сезон 1, серии 1-1 из 10) NewStudio (обновляемая)
  • Разгар лета / Мертвое лето / Dead of Summer (2016) WEB-DLRip (сезон 1, серии 1 из 10) LostFilm (обновляемая)
  • Разгар лета / Мертвое лето / Dead of Summer (2016) WEB-DL [H.264 / 1080p-LQ] (сезон 1, серии 1 из 10) LostFilm (обновляемая)


    • Комментарии (0):

      Информация

      Информация

        Посетители, находящиеся в группе Гости, не могут оставлять комментарии в данной новости.

        ↓ Меню




        ↓ Опрос

        Вы добавили сайт в закладки?
        Да
        Нет


        Top 10 за месяц (Фильмы)