.
Авторизация | Регистрация
Хочешь лучшие торренты? Добавь свой email!
Добавить

Торрент скачать бесплатно

» » Зверинец / Zoo (2016) WEB-DLRip (сезон 2, серии 1-2 из 13) NewStudio (обновляемая) торрент скачать бесплатно




    Зверинец / Zoo (2016) WEB-DLRip (сезон 2, серии 1-2 из 13) NewStudio (обновляемая) торрент скачать бесплатно

    Опубликовал: Админ | Дата: 2-07-2016, 04:01 | Просмотров: 180

    Производство: США/James Patterson Entertainment, Tree Line Film, Midnight Radio
    Жанр: фантастика, триллер, драма
    Режиссер: Майкл Кэтлман, Стив Эделсон, Дэвид Соломон

    Актеры
    Джеймс Волк, Кристен Коннолли, Билли Бёрк, Нора Арнезедер, Нонсо Анози, Карл Ламбли, Ксандер Беркли, Маркус Хестер, Мэдисон Вульф, Бенуа Крансак и др.

    Описание

    Сериал рассказывает о молодом ученом, который пытается выяснить, что послужило причиной вспышки жестоких нападений животных на людей. Экранизация романа Джеймса Паттерсона Зоопарк.

    Продолжительность: ~00: 42: 00 серия
    Качество видео: WEB-DLRip
    Перевод: Многоголосый закадровый, профессиональный -NewStudio
    Автор перевода: Александра Цернант
    Видео: XviD, 720x400 (16: 9), ~1584 Kb/s
    Аудио Rus: MPEG Layer 3, 48, 0 kHz, 2 ch, 128 kb/s — многоголосый закадровый
    Аудио Eng: MPEG Layer 3, 48, 0 kHz, 2 ch, 128 kb/s — оригинал
    Общее
    Полное имя : D: Зверинец (сезон любимого сериала 2) Zoo (2016) WEB-DLRip - NewStudioZoo.S02E01.WEBDLRip.Rus.Eng.DV.NewStudio.avi
    Формат : AVI
    Формат/Информация : Audio Video Interleave
    Размер файла : 540 Мбайт
    Продолжительность : 40 м.
    Общий поток : 1854 Кбит/сек
    Название фильма : Zoo.S02E01.WEBDLRip.Rus.Eng.DV.NewStudio/NNM-Club
    Программа кодирования : VirtualDubModRus 1.5.10.2 (build 2542/release)
    Библиотека кодирования : VirtualDubMod build 2542/release
    Видео
    Идентификатор : 0
    Формат : MPEG-4 Visual
    Профиль формата : Advanced Simple@L5
    Параметр BVOP формата : 2
    Параметр QPel формата : Да
    Параметр GMC формата : Без точки перехода
    Параметр матрицы формата : Default (MPEG)
    Режим смешивания : Сжатый битовый поток
    Идентификатор кодека : XVID
    Идентификатор кодека/Подсказка : XviD
    Продолжительность : 40 м.
    Битрейт : 1584 Кбит/сек
    Ширина : 720 пикселей
    Высота : 400 пикселей
    Соотношение сторон : 16: 9
    Частота кадров : 23, 976 (23976/1000) кадра/сек
    Цветовое пространство : YUV
    Субдискретизация насыщенности : 4: 2: 0
    Битовая глубина : 8 бит
    Тип развёртки : Прогрессивная
    Метод сжатия : С потерями
    Бит/(Пиксели*Кадры) : 0.229
    Размер потока : 461 Мбайт (85%)
    Библиотека кодирования : XviD 67
    Аудио #1
    Идентификатор : 1
    Формат : MPEG Audio
    Версия формата : Version 1
    Профиль формата : Layer 3
    Режим : Joint stereo
    Расширение режима : MS Stereo
    Идентификатор кодека : 55
    Идентификатор кодека/Подсказка : MP3
    Продолжительность : 40 м.
    Вид битрейта : Постоянный
    Битрейт : 128 Кбит/сек
    Каналы : 2 канала
    Частота : 48, 0 КГц
    Метод сжатия : С потерями
    Размер потока : 37, 3 Мбайт (7%)
    Выравнивание : Соединение по промежуткам
    Продолжительность промежутка : 42 мс. (1, 00 видеокадр)
    Время предзагрузки промежутка : 504 мс.
    Аудио #2
    Идентификатор : 2
    Формат : MPEG Audio
    Версия формата : Version 1
    Профиль формата : Layer 3
    Режим : Joint stereo
    Расширение режима : MS Stereo
    Идентификатор кодека : 55
    Идентификатор кодека/Подсказка : MP3
    Продолжительность : 40 м.
    Вид битрейта : Постоянный
    Битрейт : 128 Кбит/сек
    Каналы : 2 канала
    Частота : 48, 0 КГц
    Метод сжатия : С потерями
    Размер потока : 37, 3 Мбайт (7%)
    Выравнивание : Соединение по промежуткам
    Продолжительность промежутка : 42 мс. (1, 00 видеокадр)
    Время предзагрузки промежутка : 504 мс.
    Библиотека кодирования : LAME3.99.5ЄЄЄЄЄЄЄЄЄЄ


    Скриншоты для ознакомления




    Онлайн видео Зверинец



    Зверинец/Zoo (2016) WEB-DLRip (сезон 2, серии 1-2 из 13) NewStudio (обновляемая)
    загрузка...
    Рейтинг →
     (голосов: 1, оценка 4/5, голосовать можно 1 раз )

    Другие торренты по теме:

  • Зверинец / Zoo (2015) WEB-DLRip (сезон 1, серии 1 из 13) BaibaKo (обновляемая) скачать через торрент бесплатно
  • Зверинец / Zoo (2015) WEB-DLRip [H.264] (Сезон 1, серия 1 из 13) BaibaKo [MP4|720x400] скачать через торрент бесплатно
  • Зверинец / Zoo (2015) WEB-DLRip (сезон 1, серии 1-2 из 13) NewStudio (обновляемая) скачать через торрент бесплатно
  • Зверинец / Zoo (2016) WEB-DLRip [H.264] (сезон 2, серии 1-5 из 13) BaibaKo [MP4|720x400]


    • Комментарии (0):

      Информация

      Информация

        Посетители, находящиеся в группе Гости, не могут оставлять комментарии в данной новости.

        ↓ Меню




        ↓ Опрос

        Вы добавили сайт в закладки?
        Да
        Нет


        Top 10 за месяц (Фильмы)