.
Авторизация | Регистрация
Хочешь лучшие торренты? Добавь свой email!
Добавить

Торрент скачать бесплатно

» » Кости / Bones (2015) WEB-DLRip (сезон 11, серии 1-20 из 22) BaibaKo (обновляемая) торрент скачать бесплатно




    Кости / Bones (2015) WEB-DLRip (сезон 11, серии 1-20 из 22) BaibaKo (обновляемая) торрент скачать бесплатно

    Опубликовал: Админ | Дата: 1-07-2016, 04:00 | Просмотров: 29

    Производство: США/Far Field Productions, Josephson Entertainment, 20th Century Fox Television
    Жанр: драма, криминал, детектив
    Режиссер: Рэнди Зиск, Дуайт Литтл, Майкл Ланж, Чад Лоу

    Актеры
    Эмили Дешанель, Дэвид Бореаназ, Микаэла Конлин, Ти-Джей Тайн, Тамара Тейлор, Джон Бойд, Патриция Белчер, Педж Вахдат, Майкл Терри, Юджин Бирд, Карла Галло и др.

    Описание

    Прошло шесть месяцев с того момента, как мы последний раз видели счастливую семью Бут-Бреннан. Они наслаждаются семейной идиллией в почти идеальном мире вместе со своей маленькой дочерью и новорождённым сыном, но судьба приготовила для них очередную порцию испытаний и приключений...
    С какими только преступлениями уже ни доводилось сталкиваться героям, но фантазия преступников безгранична, поэтому без работы ребята не останутся.

    Продолжительность: ~00: 43: 00 серия
    Качество видео: WEB-DLRip
    Перевод: Многоголосый закадровый, профессиональный -BaibaKo
    Автор перевода: Наталья Черненко
    Озвучка: Лира Грим, Светлана Доманова, Татьяна Оболевич, Артемий Мирон и Виталий Ткаченко
    Реклама: присутствуют аудио вставки рекламы.
    Видео: XviD, 720x400 (16: 9), ~1500 kb/s
    Аудио Rus: MPEG Layer 3, 48, 0 kHz, 2 ch, 192 kb/s — многоголосый закадровый
    Аудио Eng: MPEG Layer 3, 48, 0 kHz, 2 ch, 192 kb/s — оригинал
    Код:
    Общее
    Полное имя : D:Кости (сезон любимого сериала 11) Bones (2015) WEB-DLRip - BaibaKoBones.s11e01.WEB-DLRip.XviD.Rus.Eng.BaibaKo.tv.avi
    Формат : AVI
    Формат/Информация : Audio Video Interleave
    Размер файла : 621 Мбайт
    Продолжительность : 45 м.
    Общий поток : 1898 Кбит/сек
    Программа кодирования : VirtualDubMod 1.5.10.2 (build 2542/release)
    Библиотека кодирования : VirtualDubMod build 2542/release
    Видео
    Идентификатор : 0
    Формат : MPEG-4 Visual
    Профиль формата : Advanced Simple@L5
    Параметр BVOP формата : 2
    Параметр QPel формата : Нет
    Параметр GMC формата : Без точки перехода
    Параметр матрицы формата : Default (H.263)
    Идентификатор кодека : XVID
    Идентификатор кодека/Подсказка : XviD
    Продолжительность : 45 м.
    Битрейт : 1500 Кбит/сек
    Ширина : 720 пикселей
    Высота : 400 пикселей
    Соотношение сторон : 16:9
    Частота кадров : 23, 976 (24000/1001) кадра/сек
    Цветовое пространство : YUV
    Субдискретизация насыщенности : 4:2:0
    Битовая глубина : 8 бит
    Тип развёртки : Прогрессивная
    Метод сжатия : С потерями
    Бит/(Пиксели*Кадры) : 0.217
    Размер потока : 491 Мбайт (79%)
    Библиотека кодирования : XviD 65
    Аудио #1
    Идентификатор : 1
    Формат : MPEG Audio
    Версия формата : Version 1
    Профиль формата : Layer 3
    Режим : Joint stereo
    Расширение режима : MS Stereo
    Идентификатор кодека : 55
    Идентификатор кодека/Подсказка : MP3
    Продолжительность : 45 м.
    Вид битрейта : Постоянный
    Битрейт : 192 Кбит/сек
    Каналы : 2 канала
    Частота : 48, 0 КГц
    Метод сжатия : С потерями
    Размер потока : 62, 9 Мбайт (10%)
    Выравнивание : Соединение по промежуткам
    Продолжительность промежутка : 42 мс. (1, 00 видеокадр)
    Время предзагрузки промежутка : 504 мс.
    Библиотека кодирования : LAME3.99r
    Настройки программы : -m j -V 4 -q 3 -lowpass 18.6 -b 192
    Аудио #2
    Идентификатор : 2
    Формат : MPEG Audio
    Версия формата : Version 1
    Профиль формата : Layer 3
    Режим : Joint stereo
    Расширение режима : MS Stereo
    Идентификатор кодека : 55
    Идентификатор кодека/Подсказка : MP3
    Продолжительность : 45 м.
    Вид битрейта : Постоянный
    Битрейт : 192 Кбит/сек
    Каналы : 2 канала
    Частота : 48, 0 КГц
    Метод сжатия : С потерями
    Размер потока : 62, 9 Мбайт (10%)
    Выравнивание : Соединение по промежуткам
    Продолжительность промежутка : 42 мс. (1, 00 видеокадр)
    Время предзагрузки промежутка : 504 мс.
    Библиотека кодирования : LAME3.99r
    Настройки программы : -m j -V 4 -q 3 -lowpass 18.6 -b 192


    Скриншоты для ознакомления




    Онлайн видео Кости



    Кости/Bones (2015) WEB-DLRip (сезон 11, серии 1-20 из 22) BaibaKo (обновляемая)
    загрузка...
    Рейтинг →
     (голосов: 1, оценка 3/5, голосовать можно 1 раз )

    Другие торренты по теме:

  • Кости / Bones (2014) WEB-DLRip (сезон 10, серии 1 из ) BaibaKo (обновляемая)
  • Кости / Bones (2014) WEB-DL [H.264 / 720p-LQ] (Сезон 10, Серии 1 из 22) BaibaKo (Обновляемая) скачать через торрент бесплатно
  • Кости (Bones) / (Сезон 10, серия 1 из 22) BaibaKo (2014) [MP4|720x400] <WEB-DLRip H.264>
  • Кости / Bones (2014) WEB-DL [H.264 / 720p-LQ] (сезон 10, серии 1-11 из 22) BaibaKo (обновляемая) скачать через торрент бесплатно
  • Кости / Bones (2014) WEB-DLRip (сезон 10, серии 1-13 из 22) BaibaKo (обновляемая) скачать через торрент бесплатно
  • Кости / Bones (2015) WEB-DLRip (сезон 11, серии 1-2 из 22) BaibaKo (обновляемая) скачать через торрент бесплатно
  • Кости / Bones (2015) WEB-DL [H.264 / 720p-LQ] (сезон 11, серии 1-2 из ) (BaibaKo) (обновляемая) скачать через торрент бесплатно
  • Кости / Bones (2014) WEB-DL [H.264 / 1080p-LQ] (сезон 10, серии 1-15 из 22) ТВ3 (обновляемая) скачать через торрент бесплатно


    • Комментарии (0):

      Информация

      Информация

        Посетители, находящиеся в группе Гости, не могут оставлять комментарии в данной новости.

        ↓ Меню




        ↓ Опрос

        Вы добавили сайт в закладки?
        Да
        Нет


        Top 10 за месяц (Фильмы)