.
Авторизация | Регистрация
Хочешь лучшие торренты? Добавь свой email!
Добавить

Торрент скачать бесплатно

» » Челюсти 4: Месть / Jaws 4: The Revenge (1987) BDRip [H.264 / 720p] торрент скачать бесплатно




    Челюсти 4: Месть / Jaws 4: The Revenge (1987) BDRip [H.264 / 720p] торрент скачать бесплатно

    Опубликовал: Админ | Дата: 29-06-2016, 04:00 | Просмотров: 15

    Производство: США, Universal Pictures
    Жанр: Ужасы, Триллер, Приключения
    Режиссер: Джозеф Сарджент

    Актеры
    Лоррэйн Гари, Лэнс Гест, Марио Ван Пиблз, Карен Янг, Майкл Кейн, Джудит Барси, Митчелл Андерсон, Линн Уитфилд, Джей Мелло, Седрик Скотт

    Описание

    Герой первых трех серий шеф полиции Мартин Броди умирает от сердечного приступа. Его младший сын погибает, столкнувшись с большой белой акулой. Мать Шона Эллен убеждена, что акула мстит ее семье. Миссис Броди летит на Багамы, где ее старший сын Майкл работает морским биологом, чтобы предупредить об опасности...

    Возраст: 16+ (зрителям, достигшим 16 лет)
    Рейтинг MPAA: PG-13 (детям до 13 лет просмотр нежелателен)
    Дата выхода DVD/Blu-ray релиза: 18 ноября 2008, Lizard Cinema Trade
    Релиз от: K.E.N(NNM-CLUB)
    Продолжительность: 01: 30: 10
    Качество видео: BDRip 720p
    Перевод: Профессиональный (многоголосый закадровый), авторский (одноголосый закадровый)
    Язык субтитров: Русский, английский
    Вид субтитров: Вшитые отключаемые
    Видео: AVC, 1280x544 (2.35: 1), 23.976 fps, 4 265 Kbps (0.255 bit/pixel)
    Аудио #1: AC-3, 48.0 KHz, 6 ch, 448 Kbps, CBR (Russian) - многоголосый (R5)
    Аудио #2: AC-3, 48.0 KHz, 2 ch, 192 Kbps, CBR (Russian) - многоголосый ОРТ
    Аудио #3: AC-3, 48.0 KHz, 2 ch, 192 Kbps, CBR (Russian) - многоголосый СТС
    Аудио #4: AC-3, 48.0 KHz, 2 ch, 192 Kbps, CBR (Russian) - авторский Ю.Живов
    Аудио #5: AC-3, 48.0 KHz, 2 ch, 192 Kbps, CBR (Russian) - авторский А.Готлиб
    Аудио #6: AC-3, 48.0 KHz, 2 ch, 192 Kbps, CBR (Russian) - авторский А.Гаврилов
    Аудио #7: AC-3, 48.0 KHz, 6 ch, 448 Kbps, CBR (English) - оригинал
    Код:

    Формат : Matroska
    Версия формата : Version 2
    Размер файла : 3, 85 Гбайт
    Продолжительность : 1 ч. 30 м.
    Общий поток : 6118 Кбит/сек
    Дата кодирования : UTC 2016-06-26 02:37:03
    Программа кодирования : mkvmerge v5.3.0 (\'I could have danced\') built on Feb 9 2012 10:38:07
    Библиотека кодирования : libebml v1.2.3 + libmatroska v1.3.0
    Attachment : Yes
    Видео
    Идентификатор : 1
    Формат : AVC
    Формат/Информация : Advanced Video Codec
    Профиль формата :High@L4.1
    Параметр CABAC формата : Да
    Параметр ReFrames формата : 10 кадров
    Идентификатор кодека : V_MPEG4/ISO/AVC
    Продолжительность : 1 ч. 30 м.
    Битрейт : 4265 Кбит/сек
    Ширина : 1280 пикселей
    Высота : 544 пикселя
    Соотношение сторон : 2, 35:1
    Режим частоты кадров : Постоянный
    Частота кадров : 23, 976 кадра/сек
    Цветовое пространство : YUV
    Субдискретизация насыщенности : 4:2:0
    Битовая глубина : 8 бит
    Тип развёртки : Прогрессивная
    Бит/(Пиксели*Кадры) : 0.255
    Размер потока : 2, 61 Гбайт (68%)
    Библиотека кодирования : x264 core 146 r2538 121396c
    Настройки программы : cabac=1/ref=10/deblock=1:-3:-3/analyse=0x3:0x133/me=umh/subme=10/psy=1/psy_rd=1.00:0.10/mixed_ref=1/me_range=32/chroma_me=1/trellis=2/8x8dct=1/cqm=0/deadzone=21, 11/fast_pskip=0/chroma_qp_offset=-3/threads=12/lookahead_threads=2/sliced_threads=0/nr=0/decimate=0/interlaced=0/bluray_compat=0/constrained_intra=0/bframes=8/b_pyramid=2/b_adapt=2/b_bias=0/direct=3/weightb=1/open_gop=0/weightp=2/keyint=240/keyint_min=23/scenecut=40/intra_refresh=0/rc_lookahead=40/rc=2pass/mbtree=0/bitrate=4265/ratetol=1.0/qcomp=0.60/qpmin=0/qpmax=69/qpstep=4/cplxblur=20.0/qblur=0.5/vbv_maxrate=50000/vbv_bufsize=62500/nal_hrd=none/filler=0/ip_ratio=1.40/pb_ratio=1.30/aq=1:0.70
    Язык : English
    Default : Да
    Forced : Нет
    Аудио #1
    Идентификатор : 2
    Формат : AC-3
    Формат/Информация : Audio Coding 3
    Расширение режима : CM (complete main)
    Параметр Endianness формата : Big
    Идентификатор кодека : A_AC3
    Продолжительность : 1 ч. 30 м.
    Вид битрейта : Постоянный
    Битрейт : 448 Кбит/сек
    Каналы : 6 каналов
    Расположение каналов : Front: L C R, Side: L R, LFE
    Частота : 48, 0 КГц
    Битовая глубина : 16 бит
    Метод сжатия : С потерями
    Размер потока : 289 Мбайт (7%)
    Заголовок : Многоголосый
    Язык : Russian
    Default : Да
    Forced : Нет
    Аудио #2
    Идентификатор : 3
    Формат : AC-3
    Формат/Информация : Audio Coding 3
    Расширение режима : CM (complete main)
    Параметр Endianness формата : Big
    Идентификатор кодека : A_AC3
    Продолжительность : 1 ч. 30 м.
    Вид битрейта : Постоянный
    Битрейт : 192 Кбит/сек
    Каналы : 2 канала
    Расположение каналов : Front: L R
    Частота : 48, 0 КГц
    Битовая глубина : 16 бит
    Метод сжатия : С потерями
    Размер потока : 124 Мбайт (3%)
    Заголовок : Профессиональный (многоголосый закадровый) ОРТ
    Язык : Russian
    Default : Нет
    Forced : Нет
    Аудио #3
    Идентификатор : 4
    Формат : AC-3
    Формат/Информация : Audio Coding 3
    Расширение режима : CM (complete main)
    Параметр Endianness формата : Big
    Идентификатор кодека : A_AC3
    Продолжительность : 1 ч. 30 м.
    Вид битрейта : Постоянный
    Битрейт : 192 Кбит/сек
    Каналы : 2 канала
    Расположение каналов : Front: L R
    Частота : 48, 0 КГц
    Битовая глубина : 16 бит
    Метод сжатия : С потерями
    Размер потока : 124 Мбайт (3%)
    Заголовок : Профессиональный (многоголосый закадровый) СТС
    Язык : Russian
    Default : Нет
    Forced : Нет
    Аудио #4
    Идентификатор : 5
    Формат : AC-3
    Формат/Информация : Audio Coding 3
    Расширение режима : CM (complete main)
    Параметр Endianness формата : Big
    Идентификатор кодека : A_AC3
    Продолжительность : 1 ч. Самое интересное в это истории, что об этом Кравчук ничего не знал. 30 м.
    Вид битрейта : Постоянный
    Битрейт : 192 Кбит/сек
    Каналы : 2 канала
    Расположение каналов : Front: L R
    Частота : 48, 0 КГц
    Битовая глубина : 16 бит
    Метод сжатия : С потерями
    Размер потока : 124 Мбайт (3%)
    Заголовок : Авторский (одноголосый закадровый) Юрий Живов
    Язык : Russian
    Default : Нет
    Forced : Нет
    Аудио #5
    Идентификатор : 6
    Формат : AC-3
    Формат/Информация : Audio Coding 3
    Расширение режима : CM (complete main)
    Параметр Endianness формата : Big
    Идентификатор кодека : A_AC3
    Продолжительность : 1 ч. 30 м.
    Вид битрейта : Постоянный
    Битрейт : 192 Кбит/сек
    Каналы : 2 канала
    Расположение каналов : Front: L R
    Частота : 48, 0 КГц
    Битовая глубина : 16 бит
    Метод сжатия : С потерями
    Размер потока : 124 Мбайт (3%)
    Заголовок : Авторский (одноголосый закадровый) Александр Готлиб
    Язык : Russian
    Default : Нет
    Forced : Нет
    Аудио #6
    Идентификатор : 7
    Формат : AC-3
    Формат/Информация : Audio Coding 3
    Расширение режима : CM (complete main)
    Параметр Endianness формата : Big
    Идентификатор кодека : A_AC3
    Продолжительность : 1 ч. 30 м.
    Вид битрейта : Постоянный
    Битрейт : 192 Кбит/сек
    Каналы : 2 канала
    Расположение каналов : Front: L R
    Частота : 48, 0 КГц
    Битовая глубина : 16 бит
    Метод сжатия : С потерями
    Размер потока : 124 Мбайт (3%)
    Заголовок : Авторский (одноголосый закадровый) Андрей Гаврилов
    Язык : Russian
    Default : Нет
    Forced : Нет
    Аудио #7
    Идентификатор : 10
    Формат : AC-3
    Формат/Информация : Audio Coding 3
    Расширение режима : CM (complete main)
    Параметр Endianness формата : Big
    Идентификатор кодека : A_AC3
    Продолжительность : 1 ч. 30 м.
    Вид битрейта : Постоянный
    Битрейт : 448 Кбит/сек
    Каналы : 6 каналов
    Расположение каналов : Front: L C R, Side: L R, LFE
    Частота : 48, 0 КГц
    Битовая глубина : 16 бит
    Метод сжатия : С потерями
    Размер потока : 289 Мбайт (7%)
    Язык : English
    Default : Нет
    Forced : Нет
    Текст #1
    Идентификатор : 8
    Формат : UTF-8
    Идентификатор кодека : S_TEXT/UTF8
    Идентификатор кодека/Информация : UTF-8 Plain Text
    Язык : English
    Default : Нет
    Forced : Нет
    Текст #2
    Идентификатор : 9
    Формат : UTF-8
    Идентификатор кодека : S_TEXT/UTF8
    Идентификатор кодека/Информация : UTF-8 Plain Text
    Язык : Russian
    Default : Нет
    Forced : Нет
    Меню
    00:00:00.000 : en:Chapter 1
    00:02:42.036 : en:Chapter 2
    00:07:25.945 : en:Chapter 3
    00:11:02.328 : en:Chapter 4
    00:15:51.408 : en:Chapter 5
    00:19:33.380 : en:Chapter 6
    00:22:55.582 : en:Chapter 7
    00:25:12.219 : en:Chapter 8
    00:27:34.861 : en:Chapter 9
    00:33:10.822 : en:Chapter 10
    00:38:13.499 : en:Chapter 11
    00:42:16.742 : en:Chapter 12
    00:47:30.138 : en:Chapter 13
    00:53:17.194 : en:Chapter 14
    00:57:59.809 : en:Chapter 15
    01:03:06.699 : en:Chapter 16
    01:09:06.308 : en:Chapter 17
    01:14:33.385 : en:Chapter 18
    01:20:15.519 : en:Chapter 19
    01:25:14.567 : en:Chapter 20
    01:30:10.446 : en:Chapter 21

    Скриншоты для ознакомления



    Скриншоты для ознакомления




    Онлайн видео Челюсти 4: Месть



    Челюсти 4: Месть/Jaws 4: The Revenge (1987) BDRip [H.264/720p]
    загрузка...
    Рейтинг →
     (голосов: 1, оценка 3/5, голосовать можно 1 раз )

    Другие торренты по теме:

  • Discovery: Разрушители легенд. Челюсти: месть / Mythbusters vs. Jaws (2015) DVB (Сезон 15, эпизод 13) [Discovery] скачать через торрент бесплатно
  • Челюсти 4: Месть / Jaws 4: The Revenge (1987) BDRemux [H.264 / 1080p]
  • Челюсти 4: Месть / Jaws: The Revenge (1987) BDRip [H.264]


    • Комментарии (0):

      Информация

      Информация

        Посетители, находящиеся в группе Гости, не могут оставлять комментарии в данной новости.

        ↓ Меню




        ↓ Опрос

        Вы добавили сайт в закладки?
        Да
        Нет


        Top 10 за месяц (Фильмы)