.
Авторизация | Регистрация
Хочешь лучшие торренты? Добавь свой email!
Добавить

Торрент скачать бесплатно

» » Дамский портной / Le couturier de ces dames (1956) DVD5 [Цветной] торрент скачать бесплатно




    Дамский портной / Le couturier de ces dames (1956) DVD5 [Цветной] торрент скачать бесплатно

    Опубликовал: Админ | Дата: 29-06-2016, 04:00 | Просмотров: 37

    Производство: Франция/C.I.P.R.A.
    Жанр: Комедия
    Режиссер: Жан Буайе

    Актеры
    Фернандель, Сьюзи Делер, Фред Паскали, Франсуаза Фабиан, Андре Бервиль, Гастон Орбаль, Робер Пизани, Жорж Шамара, Робер Дестен, Робер Ломбар

    Описание
    Закройщик мужской одежды Фернан Виньяр неожиданно для себя получает наследство – собственную мастерскую по пошиву модной одежды для дам. Отныне он может доказать своей ревнивой женушке, что его мечта – стать лучшим дамским портным Парижа – вовсе не безумна.

    Возраст: 12+ (зрителям достигшим 12 лет)
    Релиз от: maroder1 (NNM-CLUB)
    Продолжительность: 01: 32: 52
    Качество видео: DVD5
    Перевод: Двухголосый закадровый (студия Лексикон)
    Субтитры: Нет
    Дополнительные материалы: Нет
    Видео: PAL 720x576@768x576, ~5245 Kbps, 25, 00 fps
    Аудио#1: AC3, 2 ch, 192 Kbps | Русский
    Аудио#2: AC3, 2 ch, 192 Kbps | Французский
    code
    Title:
    Size: 3.94 Gb ( 4 128 236 KBytes ) - DVD-5
    Enabled regions: 1, 2, 3, 4, 5, 6, 7, 8
    VTS_01 :
    Play Length: 01: 32: 52
    Video: PAL 4: 3 (720x576) VBR
    Audio:
    Russian (Dolby AC3, 2 ch)
    Francais (Dolby AC3, 2 ch)
    code
    [code]
    Общее
    Полное имя : F: NNMClub.to_Le.couturier.de.ces.dames.1956.DVD5_maroder1VIDEO_TSVTS_01_1.VOB
    Формат : MPEG-PS
    Размер файла : 1024 Мбайт
    Продолжительность : 24 м.
    Режим общего битрейта : Переменный
    Общий поток : 5743 Кбит/сек
    Видео
    Идентификатор : 224 (0xE0)
    Формат : MPEG Video
    Версия формата : Version 2
    Профиль формата : Main@Main
    Параметр BVOP формата : Да
    Параметр матрицы формата : По умолчанию
    Параметр GOP формата : M=3, N=12
    Продолжительность : 24 м.
    Вид битрейта : Переменный
    Битрейт : 5245 Кбит/сек
    Максимальный битрейт : 9508 Кбит/сек
    Ширина : 720 пикселей
    Высота : 576 пикселей
    Соотношение сторон : 4: 3
    Частота кадров : 25, 000 кадров/сек
    Стандарт вещания : PAL
    Цветовое пространство : YUV
    Субдискретизация насыщенности : 4: 2: 0
    Битовая глубина : 8 бит
    Тип развёртки : Прогрессивная
    Метод сжатия : С потерями
    Бит/(Пиксели*Кадры) : 0.506
    Размер потока : 935 Мбайт (91%)
    Аудио #1
    Идентификатор : 189 (0xBD)-128 (0x80)
    Формат : AC-3
    Формат/Информация : Audio Coding 3
    Расширение режима : CM (complete main)
    Параметр Endianness формата : Big
    Режим смешивания : DVD-Video
    Продолжительность : 24 м.
    Вид битрейта : Постоянный
    Битрейт : 192 Кбит/сек
    Каналы : 2 канала
    Расположение каналов : Front: L R
    Частота : 48, 0 КГц
    Битовая глубина : 16 бит
    Метод сжатия : С потерями
    Размер потока : 34, 2 Мбайт (3%)
    Аудио #2
    Идентификатор : 189 (0xBD)-129 (0x81)
    Формат : AC-3
    Формат/Информация : Audio Coding 3
    Расширение режима : CM (complete main)
    Параметр Endianness формата : Big
    Режим смешивания : DVD-Video
    Продолжительность : 24 м.
    Вид битрейта : Постоянный
    Битрейт : 192 Кбит/сек
    Каналы : 2 канала
    Расположение каналов : Front: L R
    Частота : 48, 0 КГц
    Битовая глубина : 16 бит
    Метод сжатия : С потерями
    Размер потока : 34, 2 Мбайт (3%)
    Меню
    [/code]


    Скриншоты для ознакомления




    Онлайн видео Дамский портной



    Дамский портной/Le couturier de ces dames (1956) DVD5 [Цветной]
    загрузка...
    Рейтинг →
     (голосов: 1, оценка 3/5, голосовать можно 1 раз )

    Другие торренты по теме:

  • Ирина Грекова | Дамский мастер (2013) [MP3]


    • Комментарии (0):

      Информация

      Информация

        Посетители, находящиеся в группе Гости, не могут оставлять комментарии в данной новости.

        ↓ Меню




        ↓ Опрос

        Вы добавили сайт в закладки?
        Да
        Нет


        Top 10 за месяц (Фильмы)