.
Авторизация | Регистрация
Хочешь лучшие торренты? Добавь свой email!
Добавить

Торрент скачать бесплатно

» » Водолей / Aquarius (2016) WEB-DL [H.264 / 1080p-LQ] (сезон 2, серии 1-4 из 13) NewStudio (обновляемая) торрент скачать бесплатно




    Водолей / Aquarius (2016) WEB-DL [H.264 / 1080p-LQ] (сезон 2, серии 1-4 из 13) NewStudio (обновляемая) торрент скачать бесплатно

    Опубликовал: Админ | Дата: 29-06-2016, 04:00 | Просмотров: 12

    Производство: США
    Жанр: Драма, Криминал
    Режиссер: Джонас Пейт, Майкл Цинберг, Джон Эмиел

    Актеры
    Дэвид Духовны, Эмма Дюмон, Уитни Роуз Пинн, Дэвид Мюнье, Гетин Энтони, Клер Холт, Милона Джексон, Грэй Дэймон, Чэнс Келли, Михаэлла МакМанус и др.

    Описание

    Сюжет сериала основан на реальной истории организации Семья руководимой Чарльзом Мэнсоном. Время пошло, сказал кто то из толпы, к чему не понятно. События фильма начинают развиваться в 1967-м году. Полицейскому Сэму поручают расследовать похищение дочери известного адвоката. Он обращается за помощью к своему коллеге, работающему под прикрытием в среде подростков-хиппи. Вместе они выходят на Чарльза Мэнсона, собравшего на своем ранчо группу детей, среди которых он пропагандирует культуру хиппи, наркотики и групповой секс. Через два года череда зверских убийств, совершенных приспешниками Мэнсона, заставит содрогнуться от ужаса всю Америку.

    Возраст: 12+ (зрителям, достигшим 12 лет)
    Продолжительность: ~00: 43: 00 серия
    Качество видео: WEB-DL
    Перевод: Многоголосый закадровый, профессиональный -NewStudio
    Реклама: присутствуют аудио и видео вставки рекламы
    Видео: AVC/H.264, 1912х1072, ~4 718 Kbps, 23.976 fps
    Аудио Rus: AC-3, 6 ch, 48.0 KHz, 384 Kbps - многоголосый закадровый
    Аудио Eng: AC-3, 6 ch, 48.0 KHz, 384 Kbps - оригинал
    Код:

    Aquarius.s02e01.WEBDL.1080p.NewStudio.mkv
    Format : Matroska
    Format version : Version 4/Version 2
    File size : 1.65 GiB
    Duration : 43mn 6s
    Overall bit rate : 5 488 Kbps
    Encoded date : UTC 2016-06-21 20:12:29
    Writing application : mkvmerge v8.2.0 (\'World of Adventure\') 32bit
    Writing library : libebml v1.3.1 + libmatroska v1.4.2
    Video
    ID : 1
    Format : AVC
    Format/Info : Advanced Video Codec
    Format profile : High@L4
    Format settings, CABAC : Yes
    Format settings, ReFrames : 4 frames
    Codec ID : V_MPEG4/ISO/AVC
    Duration : 43mn 6s
    Bit rate : 4 718 Kbps
    Width : 1 912 pixels
    Height : 1 072 pixels
    Display aspect ratio : 16:9
    Frame rate mode : Constant
    Frame rate : 23.976 (24000/1001) fps
    Color space : YUV
    Chroma subsampling : 4:2:0
    Bit depth : 8 bits
    Scan type : Progressive
    Bits/(Pixel*Frame) : 0.096
    Stream size : 1.42 GiB (86%)
    Language : English
    Default : Yes
    Forced : No
    Color range : Limited
    Color primaries : BT.709
    Transfer characteristics : BT.709
    Matrix coefficients : BT.709
    Audio #1
    ID : 2
    Format : AC-3
    Format/Info : Audio Coding 3
    Mode extension : CM (complete main)
    Format settings, Endianness : Big
    Codec ID : A_AC3
    Duration : 43mn 6s
    Bit rate mode : Constant
    Bit rate : 384 Kbps
    Channel(s) : 6 channels
    Channel positions : Front: L C R, Side: L R, LFE
    Sampling rate : 48.0 KHz
    Frame rate : 31.250 fps (1536 spf)
    Compression mode : Lossy
    Stream size : 118 MiB (7%)
    Title : NewStudio.TV
    Language : Russian
    Default : Yes
    Forced : No
    Audio #2
    ID : 3
    Format : AC-3
    Format/Info : Audio Coding 3
    Mode extension : CM (complete main)
    Format settings, Endianness : Big
    Codec ID : A_AC3
    Duration : 43mn 6s
    Bit rate mode : Constant
    Bit rate : 384 Kbps
    Channel(s) : 6 channels
    Channel positions : Front: L C R, Side: L R, LFE
    Sampling rate : 48.0 KHz
    Frame rate : 31.250 fps (1536 spf)
    Compression mode : Lossy
    Stream size : 118 MiB (7%)
    Language : English
    Default : No
    Forced : No


    Скриншоты для ознакомления




    Онлайн видео Водолей



    Водолей/Aquarius (2016) WEB-DL [H.264/1080p-LQ] (сезон 2, серии 1-4 из 13) NewStudio (обновляемая)
    загрузка...
    Рейтинг →
     (голосов: 1, оценка 4/5, голосовать можно 1 раз )

    Другие торренты по теме:

  • Водолей / Aquarius (2015) WEB-DLRip (сезон 1, серии 1 из 13) NewStudio (обновляемая) скачать через торрент бесплатно
  • Водолей / Aquarius (2015) WEB-DL [H.264 / 1080p-LQ] (сезон 1, серии 1-3 из 13) (NewStudio) (обновляемая) скачать через торрент бесплатно
  • Водолей / Aquarius (2015) WEB-DLRip (сезон 1, серии 01-04 из 13) Jaskier (обновляемая) скачать через торрент бесплатно
  • Водолей / Aquarius (2015) WEB-DL [H.264 / 720p-LQ] (Сезон 1, серии 1-3 из 13) (NewStudio) (обновляемая) скачать через торрент бесплатно
  • Водолей / Aquarius (2016) WEB-DL [H.264 / 720p-LQ] (сезон 2, серии 1-3 из 13) OMSKBIRD (обновляемая)
  • Водолей / Aquarius (2016) WEB-DLRip (сезон 2, серии 1-3 из 13) OMSKBIRD (обновляемая)
  • Водолей / Aquarius (2016) WEB-DLRip (сезон 2, серии 1-4 из 13) NewStudio (обновляемая)
  • Водолей / Aquarius (2015) WEB-DLRip [H.264] (сезон 1, серии 1-13 из 13) NewStudio [MP4|1280x716]


    • Комментарии (0):

      Информация

      Информация

        Посетители, находящиеся в группе Гости, не могут оставлять комментарии в данной новости.

        ↓ Меню




        ↓ Опрос

        Вы добавили сайт в закладки?
        Да
        Нет


        Top 10 за месяц (Фильмы)