.
Авторизация | Регистрация
Хочешь лучшие торренты? Добавь свой email!
Добавить

Торрент скачать бесплатно

» » Белые горы (Трудная переправа) (1964) DVDRip торрент скачать бесплатно




    Белые горы (Трудная переправа) (1964) DVDRip торрент скачать бесплатно

    Опубликовал: Админ | Дата: 28-06-2016, 13:56 | Просмотров: 74

    Производство: СССР, Киргизфильм
    Жанр: Драма
    Режиссёр: Мелис Убукеев
    Актёры: Шайирбек Кобегенов, А. Абаева, Бакен Кыдыкеева, Муратбек Рыскулов, Болот Бейшеналиев, Вячеслав Жариков, К. Рысмендеева, Советбек Жумадылов, А. Айталиев, Р. Панков

    Описание

    Действие происходит в 1918 году, в первые месяцы ожесточённой борьбы с феодальной знатью за установление Советской власти в Киргизии. В центре фильма — трагическая судьба бедного юноши Мукаша, который решил спасти свою любимую Уулджан, проданную в жёны богачу. Самое интересное в это истории, что об этом Гендельф ничего не знал. Мукаш и Уулджан уходят из аула, чтобы начать новую, счастливую жизнь в городе, где прочно установилась советская власть. В стычке с преследователями, спасая Уулджан, Мукаш погибает: окружённый приспешниками несостоявшегося жениха, он спрыгивает со скалы…

    Возраст: 12+ (зрителям, достигшим 12 лет)
    Релиз от: kolman67
    Продолжительность: 01: 03: 11
    Качество видео: DVDRip
    Перевод: Не требуется
    Видео: Xvid, 720x568, ~6466 Kbps
    Аудио: AAC, 2 ch, 128 Kbps
    Код:

    Общее
    Полное имя : Белые горы (1964).mp4
    Формат : MPEG-4
    Профиль формата : Base Media
    Идентификатор кодека : isom (isom/iso2/mp41)
    Размер файла : 2, 91 Гбайт
    Продолжительность : 1 ч. 3 м.
    Режим общего битрейта : Переменный
    Общий поток : 6601 Кбит/сек
    Программа кодирования : XviD4PSP 7.0.276 DAILY
    encoding_info : MPEG MP4 Произвольный/MPEG2 XVID CBR 6700kbps HQ/AC3 AAC CBR 128kbps LC
    Видео
    Идентификатор : 1
    Формат : MPEG-4 Visual
    Профиль формата : Simple@L3
    Параметр BVOP формата : Нет
    Параметр QPel формата : Нет
    Параметр GMC формата : Без точки перехода
    Параметр матрицы формата : Default (H.263)
    Идентификатор кодека : 20
    Продолжительность : 1 ч. 3 м.
    Вид битрейта : Переменный
    Битрейт : 6466 Кбит/сек
    Максимальный битрейт : 6700 Кбит/сек
    Ширина : 720 пикселей
    Высота : 568 пикселей
    Соотношение сторон : 4:3
    Режим частоты кадров : Постоянный
    Частота кадров : 50, 000 кадров/сек
    Цветовое пространство : YUV
    Субдискретизация насыщенности : 4:2:0
    Битовая глубина : 8 бит
    Тип развёртки : Прогрессивная
    Метод сжатия : С потерями
    Бит/(Пиксели*Кадры) : 0.316
    Размер потока : 2, 85 Гбайт (98%)
    Библиотека кодирования : XviD 67
    Аудио
    Идентификатор : 2
    Формат : AAC
    Формат/Информация : Advanced Audio Codec
    Профиль формата : LC
    Идентификатор кодека : 40
    Продолжительность : 1 ч. 3 м.
    Вид битрейта : Постоянный
    Битрейт : 128 Кбит/сек
    Каналы : 2 канала
    Расположение каналов : Front: L R
    Частота : 48, 0 КГц
    Частота кадров : 46, 875 кадров/сек (1024 spf)
    Метод сжатия : С потерями
    Размер потока : 57, 9 Мбайт (2%)
    Default : Да
    Alternate group : 1


    Скриншоты для ознакомления




    Онлайн видео Вдвоем на льдине (2015) WEB



    Белые горы (Трудная переправа) (1964) DVDRip
    загрузка...
    Рейтинг →
     (голосов: 1, оценка 4/5, голосовать можно 1 раз )

    Другие торренты по теме:

  • Белые ночи почтальона Алексея Тряпицына (2014) HDTVRip
  • Белые ночи почтальона Алексея Тряпицына (2014) HDTV [1080i] скачать через торрент бесплатно
  • Белые ночи почтальона Алексея Тряпицына (2014) HDTVRip [H.264 / 720p-LQ] скачать через торрент бесплатно
  • Белые волки 2 (2014) SATRip (Серия 1-6 из 12) (обновляемая)
  • Белые ночи почтальона Алексея Тряпицына (2014) HDTVRip
  • Уважаемые белые люди / Dear White People (2014) BDRip [1080p] [EN] скачать через торрент бесплатно
  • Уважаемые белые люди / Dear White People (2014) BDRip [720p] [EN] скачать через торрент бесплатно
  • Белые ночи (1959) DVDRip [H.264] скачать через торрент бесплатно


    • Комментарии (0):

      Информация

      Информация

        Посетители, находящиеся в группе Гости, не могут оставлять комментарии в данной новости.

        ↓ Меню




        ↓ Опрос

        Вы добавили сайт в закладки?
        Да
        Нет


        Top 10 за месяц (Фильмы)