.
Авторизация | Регистрация
Хочешь лучшие торренты? Добавь свой email!
Добавить

Торрент скачать бесплатно

» » Последний корабль / The Last Ship (2016) WEB-DL [H.264 / 1080p-LQ] (сезон 3, серии 1-2 из 13) BaibaKo (обновляемая) торрент скачать бесплатно




    Последний корабль / The Last Ship (2016) WEB-DL [H.264 / 1080p-LQ] (сезон 3, серии 1-2 из 13) BaibaKo (обновляемая) торрент скачать бесплатно

    Опубликовал: Админ | Дата: 22-06-2016, 04:00 | Просмотров: 44

    Производство: США
    Жанр: Фантастика, Боевик, Триллер, Драма
    Режиссер: Майкл Кэтлман, Джек Бендер, Пол Холахан

    Актеры
    Рона Митра, Эрик Дэйн, Адам Болдуин, Михаэлла МакМанус, Трэвис Ван Винкл, Чарльз Парнелл, Кристина Элмор, Джоко Симс, Джон Пайпер-Фергюсон и др.

    Описание

    Экипаж эсминца ВМС США Натан Джеймс с двумя первоклассными микробиологами на борту долгое время находился в море с важной миссией. Благодаря этой вынужденной изоляции от остального мира команда корабля избежала заражения смертельным вирусом, который вырезал больше половины населения земного шара. Когда эта новость достигла Натана Джеймса, среди членов экипажа стала нарастать паника. Авторитет капитана Тома Чандлера (Эрик Дэйн) начал стремительно падать, а число конфликтов — неумолимо расти. К тому же выяснилось, что вирусологи оказались на борту корабля совсем не случайно...

    Дата мировой премьеры: 19 июня 2016(3 сезон любимого сериала)
    Продолжительность: ~ 00: 43: 00 серия
    Качество видео: WEB-DL
    Перевод: Многоголосый закадровый, профессиональный -BaibaKo
    Озвучка/Автор перевода: Татьяна Оболевич, Семен Птаха, Артемий Мирон и Виталий Ткаченко/Фиона Кудреватых и vipere
    Реклама: присутствуют голосовые и текстовые вставки
    Видео: AVC/H.264, 1920x1080 (16: 9), ~4917 Кбит/сек
    Аудио #1 Rus: AC3, 6 каналов, 384 Кбит/сек - многоголосый закадровый
    Аудио #2 Eng: AC3, 6 каналов, 384 Кбит/сек - оригинальный
    Код:

    Полное имя : D:The_Last_Ship_s3_WEB-DL1080p_BaibaKo_[NNMClub]The.Last.Ship.s03e01.HD1080p.WEB-DL.Rus.Eng.BaibaKo.tv.mkv
    Формат : Matroska
    Версия формата : Version 4/Version 2
    Размер файла : 1, 69 Гбайт
    Продолжительность : 41 м.
    Общий поток : 5800 Кбит/сек
    Дата кодирования : UTC 2016-06-21 07:57:18
    Программа кодирования : mkvmerge v6.8.0 (\'Theme for Great Cities\') 64bit built on Mar 2 2014 21:34:26
    Библиотека кодирования : libebml v1.3.0 + libmatroska v1.4.1
    Видео
    Идентификатор : 1
    Формат : AVC
    Формат/Информация : Advanced Video Codec
    Профиль формата : High@L4
    Параметр CABAC формата : Да
    Параметр ReFrames формата : 4 кадра
    Идентификатор кодека : V_MPEG4/ISO/AVC
    Продолжительность : 41 м.
    Битрейт : 4917 Кбит/сек
    Ширина : 1920 пикселей
    Высота : 1080 пикселей
    Соотношение сторон : 16:9
    Режим частоты кадров : Постоянный
    Частота кадров : 23, 976 кадра/сек
    Цветовое пространство : YUV
    Субдискретизация насыщенности : 4:2:0
    Битовая глубина : 8 бит
    Тип развёртки : Прогрессивная
    Бит/(Пиксели*Кадры) : 0.099
    Размер потока : 1, 43 Гбайт (85%)
    Default : Нет
    Forced : Нет
    Цветовой диапазон : Limited
    Основные цвета : BT.709
    Характеристики трансфера : BT.709
    Коэффициенты матрицы : BT.709
    Аудио #1
    Идентификатор : 2
    Формат : AC-3
    Формат/Информация : Audio Coding 3
    Расширение режима : CM (complete main)
    Параметр Endianness формата : Big
    Идентификатор кодека : A_AC3
    Продолжительность : 41 м.
    Вид битрейта : Постоянный
    Битрейт : 384 Кбит/сек
    Каналы : 6 каналов
    Расположение каналов : Front: L C R, Side: L R, LFE
    Частота : 48, 0 КГц
    Частота кадров : 31, 250 кадров/сек (1536 spf)
    Метод сжатия : С потерями
    Размер потока : 115 Мбайт (7%)
    Язык : Russian
    Default : Да
    Forced : Нет
    Аудио #2
    Идентификатор : 3
    Формат : AC-3
    Формат/Информация : Audio Coding 3
    Расширение режима : CM (complete main)
    Параметр Endianness формата : Big
    Идентификатор кодека : A_AC3
    Продолжительность : 41 м.
    Вид битрейта : Постоянный
    Битрейт : 384 Кбит/сек
    Каналы : 6 каналов
    Расположение каналов : Front: L C R, Side: L R, LFE
    Частота : 48, 0 КГц
    Частота кадров : 31, 250 кадров/сек (1536 spf)
    Метод сжатия : С потерями
    Размер потока : 115 Мбайт (7%)
    Язык : English
    Default : Нет
    Forced : Нет


    Скриншоты для ознакомления




    Онлайн видео Последний корабль



    Последний корабль/The Last Ship (2016) WEB-DL [H.264/1080p-LQ] (сезон 3, серии 1-2 из 13) BaibaKo (обновляемая)
    загрузка...
    Рейтинг →
     (голосов: 1, оценка 3/5, голосовать можно 1 раз )

    Другие торренты по теме:

  • Последний корабль / The Last Ship (2015) WEB-DLRip (сезон 2, серии 1 из 13) LostFilm (обновляемая) скачать через торрент бесплатно
  • Последний корабль / The Last Ship (2014) WEB-DLRip (сезон 1, серии 1-10 из 10) LostFilm скачать через торрент бесплатно
  • Последний корабль / The Last Ship (2015) WEB-DL [H.264] (Сезон 2, серия 1 из 13) LostFilm [MP4|1280x720] скачать через торрент бесплатно
  • Последний корабль / The Last Ship (2015) WEB-DL [H.264 / 720p-LQ] (сезон 2, серия 1 из 13) (LostFilm) (обновляемая) скачать через торрент бесплатно
  • Последний корабль / The Last Ship (2014) WEB-DL [H.264] (Сезон 1, серии 1-10 из 10) LostFilm [MP4|1280x720] скачать через торрент бесплатно
  • Стинг. Когда уходит последний корабль. Концерт в театре Джозефа Паппа. Нью-Йорк / Sting The Last Ship. Live At The Public Theater (2013) DVB
  • Последний корабль / The Last.Ship (2016) HDTV [H.264 / 720p-LQ] (сезон 3, серии 1-2 из 13) ColdFilm ( обновляемая )
  • Последний корабль / The Last Ship (2016) HDTV [H.264 / 720p-LQ] (сезон 3, серии 1 из 13) BaibaKo ( обновляемая )


    • Комментарии (0):

      Информация

      Информация

        Посетители, находящиеся в группе Гости, не могут оставлять комментарии в данной новости.

        ↓ Меню




        ↓ Опрос

        Вы добавили сайт в закладки?
        Да
        Нет


        Top 10 за месяц (Фильмы)