.
Авторизация | Регистрация
Хочешь лучшие торренты? Добавь свой email!
Добавить

Торрент скачать бесплатно

» » Водолей / Aquarius (2016) WEB-DL [H.264 / 720p-LQ] (сезон 2, серии 1-3 из 13) OMSKBIRD (обновляемая) торрент скачать бесплатно




    Водолей / Aquarius (2016) WEB-DL [H.264 / 720p-LQ] (сезон 2, серии 1-3 из 13) OMSKBIRD (обновляемая) торрент скачать бесплатно

    Опубликовал: Админ | Дата: 21-06-2016, 04:00 | Просмотров: 74

    Производство: США/NBC
    Жанр: Драма, детектив
    Режиссер: Джонас Пейт, Майкл Цинберг, Джон Эмиел

    Актеры
    Дэвид Духовны, Клер Холт, Эмма Дюмон, Грэй Дэймон, Чэнс Келли, Карл Конти, Михаэлла МакМанус, Тара Барр, Дэвид Мюнье, Уитни Роуз Пинн и др.

    Описание

    Сюжет сериала основан на реальной истории организации Семья руководимой Чарльзом Мэнсоном. События фильма начинают развиваться в 1967 году. Полицейскому Сэму поручают расследовать похищение дочери известного адвоката. Он обращается за помощью к своему коллеге, работающему под прикрытием в среде подростков-хиппи. Самое интересное в это истории, что об этом Кравчук ничего не знал. Вместе они выходят на Чарльза Мэнсона, собравшего на своем ранчо группу детей, среди которых он пропагандирует культуру хиппи, наркотики и групповой секс. Через два года череда зверских убийств, совершённых приспешниками Мэнсона, заставит содрогнуться от ужаса всю Америку.

    Продолжительность: ~00: 44: 00 серия
    Качество видео: WEB-DL
    Перевод: Многоголосый закадровый, профессиональный | OMSKBIRD
    Реклама: присутствуют аудио вставки рекламы.
    Видео: AVC/H.264, 1280x718, ~3904 kbps
    Аудио # 1 Rus: AC-3, 6 ch, 384 kbps, CBR - многоголосый закадровый
    Аудио # 2 Eng: AC-3, 6 ch, 384 kbps, CBR - оригинал
    Код:

    General
    Unique ID : 202793943361459096968865934536344992748 (0x9890B15BBC3FBC6BBB7D96D276B5FBEC)
    Complete name : F:Мои ДокументыВидеоРАЗДАЧИДуралейAquarius S02 WEB-DL 720p (OMSKBIRD)Aquarius S02E01 WEB-DL 720p (OMSKBIRD).mkv
    Format : Matroska
    Format version : Version 2
    File size : 1.44 GiB
    Duration : 43mn 6s
    Overall bit rate : 4 766 Kbps
    Encoded date : UTC 2016-06-19 16:03:30
    Writing application : mkvmerge v4.0.0 (\'The Stars were mine\') сборка от Jun 6 2010 16:18:42
    Writing library : libebml v1.0.0 + libmatroska v1.0.0
    Video
    ID : 1
    Format : AVC
    Format/Info : Advanced Video Codec
    Format profile :High@L3.1
    Format settings, CABAC : No
    Format settings, ReFrames : 2 frames
    Codec ID : V_MPEG4/ISO/AVC
    Duration : 43mn 6s
    Bit rate : 3 904 Kbps
    Width : 1 280 pixels
    Height : 718 pixels
    Display aspect ratio : 16:9
    Frame rate : 23.976 fps
    Color space : YUV
    Chroma subsampling : 4:2:0
    Bit depth : 8 bits
    Scan type : Progressive
    Bits/(Pixel*Frame) : 0.177
    Stream size : 1.18 GiB (82%)
    Language : English
    Default : No
    Forced : No
    Color primaries : BT.709-5, BT.1361, IEC 61966-2-4, SMPTE RP177
    Transfer characteristics : BT.709-5, BT.1361
    Matrix coefficients : BT.709-5, BT.1361, IEC 61966-2-4 709, SMPTE RP177
    Audio #1
    ID : 2
    Format : AC-3
    Format/Info : Audio Coding 3
    Mode extension : CM (complete main)
    Format settings, Endianness : Big
    Codec ID : A_AC3
    Duration : 43mn 6s
    Bit rate mode : Constant
    Bit rate : 384 Kbps
    Channel(s) : 6 channels
    Channel positions : Front: L C R, Side: L R, LFE
    Sampling rate : 48.0 KHz
    Bit depth : 16 bits
    Compression mode : Lossy
    Stream size : 118 MiB (8%)
    Language : Russian
    Default : Yes
    Forced : No
    Audio #2
    ID : 3
    Format : AC-3
    Format/Info : Audio Coding 3
    Mode extension : CM (complete main)
    Format settings, Endianness : Big
    Codec ID : A_AC3
    Duration : 43mn 6s
    Bit rate mode : Constant
    Bit rate : 384 Kbps
    Channel(s) : 6 channels
    Channel positions : Front: L C R, Side: L R, LFE
    Sampling rate : 48.0 KHz
    Bit depth : 16 bits
    Compression mode : Lossy
    Stream size : 118 MiB (8%)
    Language : English
    Default : No
    Forced : No


    Скриншоты для ознакомления




    Онлайн видео Водолей



    Водолей/Aquarius (2016) WEB-DL [H.264/720p-LQ] (сезон 2, серии 1-3 из 13) OMSKBIRD (обновляемая)
    загрузка...
    Рейтинг →
     (голосов: 1, оценка 4/5, голосовать можно 1 раз )

    Другие торренты по теме:

  • Водолей / Aquarius (2015) WEB-DLRip (сезон 1, серии 1 из 13) NewStudio (обновляемая) скачать через торрент бесплатно
  • Водолей / Aquarius (2015) WEB-DL [H.264 / 1080p-LQ] (сезон 1, серии 1-3 из 13) (NewStudio) (обновляемая) скачать через торрент бесплатно
  • Водолей / Aquarius (2015) WEB-DLRip (сезон 1, серии 01-04 из 13) Jaskier (обновляемая) скачать через торрент бесплатно
  • Водолей / Aquarius (2015) WEB-DL [H.264 / 720p-LQ] (Сезон 1, серии 1-3 из 13) (NewStudio) (обновляемая) скачать через торрент бесплатно
  • Водолей / Aquarius (2016) WEB-DLRip (сезон 2, серии 1-3 из 13) OMSKBIRD (обновляемая)
  • Водолей / Aquarius (2016) WEB-DLRip (сезон 2, серии 1-4 из 13) NewStudio (обновляемая)
  • Водолей / Aquarius (2016) WEB-DL [H.264 / 1080p-LQ] (сезон 2, серии 1-4 из 13) NewStudio (обновляемая)
  • Водолей / Aquarius (2015) WEB-DLRip [H.264] (сезон 1, серии 1-13 из 13) NewStudio [MP4|1280x716]


    • Комментарии (0):

      Информация

      Информация

        Посетители, находящиеся в группе Гости, не могут оставлять комментарии в данной новости.

        ↓ Меню




        ↓ Опрос

        Вы добавили сайт в закладки?
        Да
        Нет


        Top 10 за месяц (Фильмы)