.
Авторизация | Регистрация
Хочешь лучшие торренты? Добавь свой email!
Добавить

Торрент скачать бесплатно

» » Красавица и чудовище / Beauty and the Beast (2016) WEB-DLRip (сезон 4, серии 1-3 из 13) LostFilm (обновляемая) торрент скачать бесплатно




    Красавица и чудовище / Beauty and the Beast (2016) WEB-DLRip (сезон 4, серии 1-3 из 13) LostFilm (обновляемая) торрент скачать бесплатно

    Опубликовал: Админ | Дата: 20-06-2016, 04:00 | Просмотров: 28

    Производство: Канада/Take 5 Productions, Whizbang Films, CBS Television Studios
    Жанр: триллер, драма, детектив, фантастика
    Режиссер: Стюарт Гиллард, Стив Эделсон, Рик Бота

    Актеры
    Кристин Крук, Джей Райан, Остин Басис, Нина Лизандрелло, Сендхил Рамамурти, Николь Гэйл Андерсон, Макс Браун, Брайан Дж. Уайт, Эмбер Скай Нойес, Тед Уиттэлл и др.

    Описание

    В центре сюжета находится умный, жесткий и уверенный в себе детектив убойного отдела Кэтрин Чандлер, которая начинает работать в паре с доктором Винсентом Келлером, бывшим солдатом, который стал жертвой медицинских опытов, вследствие чего теперь обладает огромной физической силой. Вместе они расследуют самые жестокие преступления, совершенные в Нью-Йорке.

    Продолжительность: ~00: 42: 00 серия
    Качество видео: WEB-DLRip
    Перевод: Многоголосый закадровый, профессиональный -LostFilm
    Реклама: присутствуют заставка и логотип LostFilm.
    Видео: XviD, 720x400 (16: 9), ~1559 Kbps
    Аудио Rus: MPEG Layer 3, 48, 0 kHz, 2 ch, 192 kbps — многоголосый закадровый
    Код:

    Общее
    Полное имя : D:Красавица и чудовище (сезон любимого сериала 4) Beauty and the Beast (2016) WEB-DLRip - LostFilmBeauty.and.the.Beast.S04E01.rus.LostFilm.TV.avi
    Формат : AVI
    Формат/Информация : Audio Video Interleave
    Размер файла : 524 Мбайт
    Продолжительность : 41 м.
    Режим общего битрейта : Переменный
    Общий поток : 1760 Кбит/сек
    Программа кодирования : Nandub v1.0rc2
    Библиотека кодирования : Nandub build 1853/release
    Видео
    Идентификатор : 0
    Формат : MPEG-4 Visual
    Профиль формата : Advanced Simple@L5
    Параметр BVOP формата : Нет
    Параметр QPel формата : Нет
    Параметр GMC формата : Без точки перехода
    Параметр матрицы формата : Default (H.263)
    Идентификатор кодека : XVID
    Идентификатор кодека/Подсказка : XviD
    Продолжительность : 41 м.
    Битрейт : 1559 Кбит/сек
    Ширина : 720 пикселей
    Высота : 400 пикселей
    Соотношение сторон : 16:9
    Частота кадров : 23, 976 (23976/1000) кадра/сек
    Цветовое пространство : YUV
    Субдискретизация насыщенности : 4:2:0
    Битовая глубина : 8 бит
    Тип развёртки : Прогрессивная
    Метод сжатия : С потерями
    Бит/(Пиксели*Кадры) : 0.226
    Размер потока : 464 Мбайт (89%)
    Библиотека кодирования : XviD 1.2.1 (UTC 2008-12-04)
    Аудио
    Идентификатор : 1
    Формат : MPEG Audio
    Версия формата : Version 1
    Профиль формата : Layer 3
    Режим : Joint stereo
    Расширение режима : MS Stereo
    Идентификатор кодека : 55
    Идентификатор кодека/Подсказка : MP3
    Продолжительность : 41 м.
    Вид битрейта : Переменный
    Битрейт : 192 Кбит/сек
    Каналы : 2 канала
    Частота : 48, 0 КГц
    Метод сжатия : С потерями
    Размер потока : 56, 0 Мбайт (11%)
    Выравнивание : Соединение по промежуткам
    Продолжительность промежутка : 24 мс. (0, 58 видеокадр)
    Время предзагрузки промежутка : 481 мс.
    Библиотека кодирования : LAME3.97b
    Настройки программы : -m j -V 4 -q 3 -lowpass 18.6 --abr 192


    Скриншоты для ознакомления




    Онлайн видео Красавица и чудовище



    Красавица и чудовище/Beauty and the Beast (2016) WEB-DLRip (сезон 4, серии 1-3 из 13) LostFilm (обновляемая)
    загрузка...
    Рейтинг →
     (голосов: 1, оценка 4/5, голосовать можно 1 раз )

    Другие торренты по теме:

  • Ольга Володарская | Красавица-чудовище (2015) [FB2] скачать через торрент бесплатно
  • Красавица и чудовище / Beauty and the Beast (1991) BDRip
  • Красавица и чудовище: Чудесное Рождество / Beauty and the Beast: The Enchanted Christmas (1997) BDRip [H.264 / 720p-LQ]
  • Красавица и чудовище / Die Schone und das Biest (2012) SATRip
  • Красавица и чудовище / La belle et la bete (2014) HDRip скачать через торрент бесплатно
  • Красавица и чудовище / La belle et la bete (2014) HDRip скачать через торрент бесплатно
  • Красавица и чудовище / La belle et la bete (2014) BDRip [H.264] скачать через торрент бесплатно
  • Красавица и чудовище / La belle et la bete (2014) BDRip [H.264] скачать через торрент бесплатно


    • Комментарии (0):

      Информация

      Информация

        Посетители, находящиеся в группе Гости, не могут оставлять комментарии в данной новости.

        ↓ Меню




        ↓ Опрос

        Вы добавили сайт в закладки?
        Да
        Нет


        Top 10 за месяц (Фильмы)