.
Авторизация | Регистрация
Хочешь лучшие торренты? Добавь свой email!
Добавить

Торрент скачать бесплатно

» » По волчьим законам / Animal Kingdom (2016) WEB-DLRip [H.264 / 1080p-LQ] (сезон 1, серии 1 из 10) LostFilm (обновляемая) торрент скачать бесплатно




    По волчьим законам / Animal Kingdom (2016) WEB-DLRip [H.264 / 1080p-LQ] (сезон 1, серии 1 из 10) LostFilm (обновляемая) торрент скачать бесплатно

    Опубликовал: Админ | Дата: 19-06-2016, 04:05 | Просмотров: 34

    Производство: США
    Жанр: Драма, Криминал
    Режиссер: Джон Уэллс

    Актеры
    Эллен Баркин, Девон Сава, Скотт Спидман, Бен Робсон, Даниэлла Алонсо, Шон Хэтоси, Райан Дорси, Анна Белкнап, Джейк Вири, Карен Малина Уайт и др.

    Описание

    Джошуа Джей Коуди потерял мать, которая скончалась из-за передозировки наркотиков. Единственная, к кому он теперь может обратиться, — бабушка, не видевшая внука вот уже десять лет. Джанин Коуди, или Смурф, как все ее называют, отлично устроилась: большой дом с бассейном, процветающий бизнес, крепкие взрослые сыновья на подхвате. И Джею, как новичку в этом клане, ни в чем не отказывают. Однако ему и не доверяют. Подарки не могут замаскировать тот факт, что дяди относятся к племяннику снисходительно, презрительно и даже враждебно, устраивая ему различные проверки на благонадежность. Атмосферу накаляет недавно вышедший из тюрьмы Эндрю по прозвищу Поуп, старший сын Смурф. О таком странном сюжете не догадывалась даже Бритни Спирс. Он открыто демонстрирует свою неприязнь к гостю, провоцируя его на различные глупости. Вскоре Джей понимает, что с виду заботливые родственники тяготятся его присутствием, да и он сам не чувствует себя в безопасности, узнав, что семейное дело бабули связано с криминалом. Прежняя жизнь юноши в безденежье и с нестабильной матерью была не сахар, но и новая, в достатке, зато с агрессивной родней и перспективой в любую минуту поймать шальную пулю, не лучше. Идти ли Джею собственной дорогой или попытаться приспособиться к бандитской жизни? Это только первый вопрос, на который он должен ответить на своем трудном пути к взрослой жизни…

    Дата мировой премьеры: 14 июня 2016
    Продолжительность: ~ 00: 55: 00 серия
    Качество видео: WEB-DLRip
    Перевод: Многоголосый закадровый, профессиональный -LostFilm
    Реклама: присутствуют заставка и логотип LostFilm
    Видео: AVC/H.264, 1920x1080, ~5242 Kbps
    Аудио #1 Rus: AC3, 48, 0 kHz, 2 ch, 384 Kbps - многоголосый закадровый
    Аудио #2 Eng: AC3, 48, 0 kHz, 2 ch, 384 Kbps - оригинал
    Код:

    Complete name : G:Animal.Kingdom.US.1080p.rus.LostFilmAnimal.Kingdom.US.S01E01.1080p.rus.LostFilm.mkv
    Format : Matroska
    Format version : Version 4/Version 2
    File size : 2.31 GiB
    Duration : 55mn 3s
    Overall bit rate : 6 011 Kbps
    Encoded date : UTC 2016-06-17 20:23:43
    Writing application : mkvmerge v7.7.0 (\'Six Voices\') 64bit built on Feb 28 2015 23:39:33
    Writing library : libebml v1.3.1 + libmatroska v1.4.2
    Video
    ID : 1
    Format : AVC
    Format/Info : Advanced Video Codec
    Format profile :High@L4.1
    Format settings, CABAC : Yes
    Format settings, ReFrames : 4 frames
    Codec ID : V_MPEG4/ISO/AVC
    Duration : 55mn 2s
    Bit rate : 5 242 Kbps
    Width : 1 920 pixels
    Height : 1 080 pixels
    Display aspect ratio : 16:9
    Frame rate mode : Constant
    Frame rate : 23.976 (24000/1001) fps
    Original frame rate : 23.976 (23976/1000) fps
    Color space : YUV
    Chroma subsampling : 4:2:0
    Bit depth : 8 bits
    Scan type : Progressive
    Bits/(Pixel*Frame) : 0.105
    Stream size : 2.02 GiB (87%)
    Writing library : x264 core 112 r1834 a51816a
    Encoding settings : cabac=1/ref=4/deblock=1:-3:-2/analyse=0x3:0x113/me=hex/subme=7/psy=1/psy_rd=1.00:0.00/mixed_ref=1/me_range=16/chroma_me=1/trellis=1/8x8dct=1/cqm=0/deadzone=21, 11/fast_pskip=1/chroma_qp_offset=-2/threads=12/sliced_threads=0/nr=0/decimate=1/interlaced=0/constrained_intra=0/bframes=5/b_pyramid=2/b_adapt=1/b_bias=0/direct=1/weightb=1/open_gop=0/weightp=2/keyint=250/keyint_min=25/scenecut=40/intra_refresh=0/rc_lookahead=40/rc=2pass/mbtree=1/bitrate=5242/ratetol=1.0/qcomp=0.60/qpmin=0/qpmax=51/qpstep=4/cplxblur=20.0/qblur=0.5/vbv_maxrate=10000/vbv_bufsize=256000/ip_ratio=1.40/aq=1:1.00/nal_hrd=none
    Default : Yes
    Forced : No
    Audio #1
    ID : 2
    Format : AC-3
    Format/Info : Audio Coding 3
    Mode extension : CM (complete main)
    Format settings, Endianness : Big
    Codec ID : A_AC3
    Duration : 55mn 2s
    Bit rate mode : Constant
    Bit rate : 384 Kbps
    Channel(s) : 2 channels
    Channel positions : Front: L R
    Sampling rate : 48.0 KHz
    Frame rate : 31.250 fps (1536 spf)
    Compression mode : Lossy
    Stream size : 151 MiB (6%)
    Default : Yes
    Forced : No
    Audio #2
    ID : 3
    Format : AC-3
    Format/Info : Audio Coding 3
    Mode extension : CM (complete main)
    Format settings, Endianness : Big
    Codec ID : A_AC3
    Duration : 55mn 3s
    Bit rate mode : Constant
    Bit rate : 384 Kbps
    Channel(s) : 2 channels
    Channel positions : Front: L R
    Sampling rate : 48.0 KHz
    Frame rate : 31.250 fps (1536 spf)
    Compression mode : Lossy
    Stream size : 151 MiB (6%)
    Default : No
    Forced : No


    Скриншоты для ознакомления




    Онлайн видео По волчьим законам



    По волчьим законам/Animal Kingdom (2016) WEB-DLRip [H.264/1080p-LQ] (сезон 1, серии 1 из 10) LostFilm (обновляемая)
    загрузка...
    Рейтинг →
     (голосов: 1, оценка 4/5, голосовать можно 1 раз )

    Другие торренты по теме:

  • По волчьим законам / Animal Kingdom (2009) BDRip [720p] скачать через торрент бесплатно
  • По волчьим законам / Animal Kingdom (2009) BDRip [H.264 / 1080p]
  • По волчьим законам / Animal Kingdom (2016) WEB-DLRip (сезон 1, серии 1 из 10) NewStudio (обновляемая)
  • По волчьим законам / Animal Kingdom (2016) WEB-DLRip [H.264] (сезон 1, серии 1 из 10) NewStudio (обновляемая)
  • По волчьим законам / Animal Kingdom (2016) WEB-DL [H.264 / 1080p-LQ] (сезон 1, серии 1 из 10) NewStudio (обновляемая)
  • По волчьим законам / Animal Kingdom (2016) WEB-DLRip [H.264 / 720p] (сезон 1, серии 1 из 10) LostFilm (обновляемая)
  • По волчьим законам / Animal Kingdom (2016) WEB-DLRip (сезон 1, серии 1 из 10) LostFilm (обновляемая)
  • По волчьим законам / Animal Kingdom (2009) BDRemux [H.264 / 1080p]


    • Комментарии (0):

      Информация

      Информация

        Посетители, находящиеся в группе Гости, не могут оставлять комментарии в данной новости.

        ↓ Меню




        ↓ Опрос

        Вы добавили сайт в закладки?
        Да
        Нет


        Top 10 за месяц (Фильмы)