.
Авторизация | Регистрация
Хочешь лучшие торренты? Добавь свой email!
Добавить

Торрент скачать бесплатно

» » В былые времена / Back in the Day (2016) WEB-DL [H.264 / 720p-LQ] торрент скачать бесплатно




    В былые времена / Back in the Day (2016) WEB-DL [H.264 / 720p-LQ] торрент скачать бесплатно

    Опубликовал: Админ | Дата: 18-06-2016, 04:00 | Просмотров: 41

    Производство: США/Movie Group, The, Tappan Films
    Жанр: Драма
    Режиссер: Пол Боргезе

    Актеры
    Алек Болдуин, Шеннен Доэрти, Дэнни Гловер, Аннабелла Шиорра, Джо Д`Онофрио, Луис Ломбарди, Мэнни Перез, Марго Казарян, Уильям ДеМео, Джимми Палумбо, Пол Боргезе, Мэнни Айала, Ронни Мармо, Рокко Паренте ...

    Описание

    Детство у главного персонажа было не такое счастливое, как хотелось бы. Вспоминая о прошлом, он раз за разом мысленно переноситься в Бруклин, где проходили детские годы, на улицах города процветала преступность, часто были слышны выстрелы и крики. Главный персонаж рос в жесточайшем мире, в котором его унижали, оскорбляли. Отец, который страдал от алкогольной зависимости практически не обращал внимание на растущего сына, а любимая мама, которая заботилась о сыне как могла, покинула этот мир слишком рано. Парень очень тяжело переживал смерть матери, но, не смотря на это, он старался оставаться хорошим человекам с моральными устоями. Спустя какое-то время на парня обратил внимание человек из преступного мира, он забрал его к себе в тот момент, когда парень решил связать свою жизнь с боксом. Самое интересное в это истории, что об этом Человек паук ничего не знал. С каждым днем герой становился все сильнее и успешнее, хотя для мальчика который вырос в таких условиях это практически невозможно.

    Премьера(мир): 20 мая 2016
    Продолжительность: 02: 00: 21
    Качество видео: WEB-DL
    Перевод: Профессиональный многоголосый (Paradox Omskbird records)
    Субтитры: Отсутствуют
    Реклама: Присутствуют вставки голосовой и текстовой рекламы.
    Видео: AVC, 1280x536 (2.35: 1), 23.976 fps, 3 753 Kbps (0.228 bit/pixel)
    Аудио: AC-3, 48.0 KHz, 2 ch, 384 Kbps, CBR
    Код:

    Формат : Matroska
    Версия формата : Version 4/Version 2
    Размер файла : 3, 55 Гбайт
    Продолжительность : 2 ч. 0 м.
    Режим общего битрейта : Постоянный
    Общий поток : 4221 Кбит/сек
    Дата кодирования : UTC 2016-06-17 12:20:33
    Программа кодирования : mkvmerge v7.6.0 (\'Garden of Dreams\') 64bit built on Feb 8 2015 13:04:34
    Библиотека кодирования : libebml v1.3.1 + libmatroska v1.4.2
    _STATISTICS_WRITING_APP : mkvmerge v7.6.0 (\'Garden of Dreams\') 64bit built on Feb 8 2015 13:04:34
    _STATISTICS_WRITING_DATE_UTC : 2016-06-17 12:20:33
    _STATISTICS_TAGS : BPS DURATION NUMBER_OF_FRAMES NUMBER_OF_BYTES
    DURATION : 02:00:21.664000000
    NUMBER_OF_FRAMES : 225677
    NUMBER_OF_BYTES : 346639872
    Видео
    Идентификатор : 1
    Формат : AVC
    Формат/Информация : Advanced Video Codec
    Профиль формата :High@L4.1
    Параметр CABAC формата : Да
    Параметр ReFrames формата : 12 кадров
    Идентификатор кодека : V_MPEG4/ISO/AVC
    Продолжительность : 2 ч. 0 м.
    Вид битрейта : Постоянный
    Битрейт : 3753 Кбит/сек
    Номинальный битрейт : 4400 Кбит/сек
    Ширина : 1280 пикселей
    Высота : 536 пикселей
    Соотношение сторон : 2, 40:1
    Режим частоты кадров : Постоянный
    Частота кадров : 23, 976 кадра/сек
    Стандарт вещания : Component
    Цветовое пространство : YUV
    Субдискретизация насыщенности : 4:2:0
    Битовая глубина : 8 бит
    Тип развёртки : Прогрессивная
    Бит/(Пиксели*Кадры) : 0.228
    Размер потока : 3, 16 Гбайт (89%)
    Язык : English
    Default : Да
    Forced : Нет
    Цветовой диапазон : Limited
    Основные цвета : BT.709
    Характеристики трансфера : BT.709
    Коэффициенты матрицы : BT.709
    Аудио
    Идентификатор : 2
    Формат : AC-3
    Формат/Информация : Audio Coding 3
    Расширение режима : CM (complete main)
    Параметр Endianness формата : Big
    Идентификатор кодека : A_AC3
    Продолжительность : 2 ч. 0 м.
    Вид битрейта : Постоянный
    Битрейт : 384 Кбит/сек
    Каналы : 2 канала
    Расположение каналов : Front: L R
    Частота : 48, 0 КГц
    Битовая глубина : 16 бит
    Метод сжатия : С потерями
    Задержка видео : 27 мс.
    Размер потока : 331 Мбайт (9%)
    Язык : Russian
    Default : Да
    Forced : Нет


    Скриншоты для ознакомления




    Онлайн видео В былые времена



    В былые времена/Back in the Day (2016) WEB-DL [H.264/720p-LQ]
    загрузка...
    Рейтинг →
     (голосов: 1, оценка 4/5, голосовать можно 1 раз )

    Другие торренты по теме:

  • В былые времена / Back in the Day (2016) WEB-DL [H.264 / 720p-LQ] [EN / EN Sub]
  • В былые времена / Back in the Day (2016) WEB-DLRip
  • В былые времена / Back in the Day (2016) WEB-DL [H.264 / 720p-LQ]
  • В былые времена / Back in the Day (2016) WEB-DLRip
  • В былые времена / Back in the Day (2016)


    • Комментарии (0):

      Информация

      Информация

        Посетители, находящиеся в группе Гости, не могут оставлять комментарии в данной новости.

        ↓ Меню




        ↓ Опрос

        Вы добавили сайт в закладки?
        Да
        Нет


        Top 10 за месяц (Фильмы)