.
Авторизация | Регистрация
Хочешь лучшие торренты? Добавь свой email!
Добавить

Торрент скачать бесплатно

» » Гастролёры / Roadies (2016) HDTV [H.264 / 720p-LQ] (сезон 1, серии 1 из 10) OMSKBIRD records (обновляемая) торрент скачать бесплатно




    Гастролёры / Roadies (2016) HDTV [H.264 / 720p-LQ] (сезон 1, серии 1 из 10) OMSKBIRD records (обновляемая) торрент скачать бесплатно

    Опубликовал: Админ | Дата: 16-06-2016, 04:00 | Просмотров: 76

    Производство: США, Bad Robot, Warner Bros. Television
    Жанр: Драма, Музыкальный, Комедия
    Режиссер: Кэмерон Кроу

    Актеры
    Люк Уилсон, Карла Гуджино, Имоджен Путс, Рейф Сполл, Киша Касл-Хьюз, Питер Кэмбор, Машин Ган Келли, Кристофер Бакус, Танк Сейд, Рон Уайт и др.

    Описание

    Шоу расскажет о команде специалистов, обеспечивающих техническую поддержку во время тура одной успешной рок-группы.

    Дата мировой премьеры: 26 июня 2016
    Возраст: 18+ (зрителям, достигшим 18 лет. запрещено для детей)
    Релиз от: OMSKBIRD records
    Продолжительность: ~00: 58: 00
    Качество видео: HDTV 720p
    Перевод: Многоголосый закадровый, профессиональный
    Вид субтитров: Отсутствуют
    Реклама: присутствуют аудио вставки рекламы
    Видео: AVC/H.264, 1280x720 (16: 9), ~4800 kbps
    Аудио # rus: AC3, 6 ch, 384 kbps, CBR
    Аудио # eng: AC3, 6 ch, 384 kbps, CBR
    Код:

    General
    Unique ID : 174920497493293909231345932634572861027 (0x8398765FE887329FBD2E9173CE4A2E63)
    Complete name : G:FilmsRoadies.S01.720p.OmskBirdRoadies.S01E01.720p.HDTV.OmskBird.mkv
    Format : Matroska
    Format version : Version 4/Version 2
    File size : 2.27 GiB
    Duration : 58mn 0s
    Overall bit rate : 5 603 Kbps
    Encoded date : UTC 2016-06-15 04:00:10
    Writing application : mkvmerge v9.1.0 (\'Little Earthquakes\') 64bit
    Writing library : libebml v1.3.3 + libmatroska v1.4.4
    Video
    ID : 1
    Format : AVC
    Format/Info : Advanced Video Codec
    Format profile :High@L4.1
    Format settings, CABAC : Yes
    Format settings, ReFrames : 5 frames
    Codec ID : V_MPEG4/ISO/AVC
    Duration : 58mn 0s
    Bit rate : 4 832 Kbps
    Width : 1 280 pixels
    Height : 720 pixels
    Display aspect ratio : 16:9
    Frame rate mode : Constant
    Frame rate : 23.976 (24000/1001) fps
    Color space : YUV
    Chroma subsampling : 4:2:0
    Bit depth : 8 bits
    Scan type : Progressive
    Bits/(Pixel*Frame) : 0.219
    Stream size : 1.96 GiB (86%)
    Writing library : x264 core 148 r2692 64f4e24
    Encoding settings : cabac=1/ref=5/deblock=1:0:0/analyse=0x3:0x113/me=umh/subme=8/psy=1/psy_rd=1.00:0.00/mixed_ref=1/me_range=16/chroma_me=1/trellis=1/8x8dct=1/cqm=0/deadzone=21, 11/fast_pskip=1/chroma_qp_offset=-2/threads=22/lookahead_threads=3/sliced_threads=0/nr=0/decimate=1/interlaced=0/bluray_compat=0/constrained_intra=0/bframes=3/b_pyramid=2/b_adapt=2/b_bias=0/direct=3/weightb=1/open_gop=0/weightp=2/keyint=250/keyint_min=23/scenecut=40/intra_refresh=0/rc_lookahead=50/rc=crf/mbtree=1/crf=18.0/qcomp=0.60/qpmin=0/qpmax=69/qpstep=4/ip_ratio=1.40/aq=1:1.00
    Language : English
    Default : Yes
    Forced : No
    Color range : Limited
    Matrix coefficients : BT.709
    Audio #1
    ID : 2
    Format : AC-3
    Format/Info : Audio Coding 3
    Mode extension : CM (complete main)
    Format settings, Endianness : Big
    Codec ID : A_AC3
    Duration : 58mn 0s
    Bit rate mode : Constant
    Bit rate : 384 Kbps
    Channel(s) : 6 channels
    Channel positions : Front: L C R, Side: L R, LFE
    Sampling rate : 48.0 KHz
    Frame rate : 31.250 fps (1536 spf)
    Compression mode : Lossy
    Stream size : 159 MiB (7%)
    Title : OmskBird 5.1
    Language : Russian
    Default : Yes
    Forced : No
    Audio #2
    ID : 3
    Format : AC-3
    Format/Info : Audio Coding 3
    Mode extension : CM (complete main)
    Format settings, Endianness : Big
    Codec ID : A_AC3
    Duration : 58mn 0s
    Bit rate mode : Constant
    Bit rate : 384 Kbps
    Channel(s) : 6 channels
    Channel positions : Front: L C R, Side: L R, LFE
    Sampling rate : 48.0 KHz
    Frame rate : 31.250 fps (1536 spf)
    Compression mode : Lossy
    Stream size : 159 MiB (7%)
    Title : original 5.1
    Language : English
    Default : No
    Forced : No


    Скриншоты для ознакомления




    Онлайн видео Гастролёры



    Гастролёры/Roadies (2016) HDTV [H.264/720p-LQ] (сезон 1, серии 1 из 10) OMSKBIRD records (обновляемая)
    загрузка...
    Рейтинг →
     (голосов: 1, оценка 4/5, голосовать можно 1 раз )

    Другие торренты по теме:

  • Гастролёры / Roadies (2016) HDTVRip (сезон 1, серии 1 из 10) OMSKBIRD records (обновляемая)
  • Гастролёры / Roadies (2016) WEBRip [H.264 / 720p-LQ] (сезон 1, серии 1-3 из 10) BaibaKo (обновляемая)


    • Комментарии (0):

      Информация

      Информация

        Посетители, находящиеся в группе Гости, не могут оставлять комментарии в данной новости.

        ↓ Меню




        ↓ Опрос

        Вы добавили сайт в закладки?
        Да
        Нет


        Top 10 за месяц (Фильмы)