.
Авторизация | Регистрация
Хочешь лучшие торренты? Добавь свой email!
Добавить

Торрент скачать бесплатно

» » Небо нашего детства (1966) VHSRip торрент скачать бесплатно




    Небо нашего детства (1966) VHSRip торрент скачать бесплатно

    Опубликовал: Админ | Дата: 15-06-2016, 04:01 | Просмотров: 29

    Производство: СССР, Киргизфильм
    Жанр: Драма, Семейный
    Режиссёр: Толомуш Океев
    Актёры: Муратбек Рыскулов, Алиман Жанкорозова, Советбек Жумадылов, Б. Рыскулова, Насрет Дубашев, Самак Алымкулов, Б. Жакиев, С. Кумушалиева

    Описание

    Мальчуган приехал на горное пастбище к родителям на летние каникулы из города, где он учится в школе и живёт в доме старшей сестры. Стареющим родителям, особенно отцу, хочется оставить своего последыша в кочевье. Вилами по воде писано, сказал кто то из толпы, к чему не понятно. Старших детей забрал город, их уже не вернуть. Кто возьмёт в свои руки хозяйство, кто согреет родителей в старости, кто, наконец, станет духовным наследником большой патриархальной семьи?
    Бакай, отец Калыка, поначалу непреклонен в своей решимости оставить сына дома, в горах. Урум, мать, оказывается мудрее и убеждает горячего и скорого на руку супруга отпустить в город и младшего сына.

    Возраст: 12+ (зрителям, достигшим 12 лет)
    Релиз от: kolman67
    Продолжительность: 01: 14: 43
    Качество видео: VHSRip
    Видео: Xvid, 576X288, ~1258 Kbps
    Аудио: MP3, 2 ch, 128 Kbps, CBR
    Код:

    Общее
    Полное имя : Небо нашего детства (1966).avi
    Формат : AVI
    Формат/Информация : Audio Video Interleave
    Размер файла : 748 Мбайт
    Продолжительность : 1 ч. Прикольно все это наверно придумал Халк потратив достаточно времени. 14 м.
    Общий поток : 1399 Кбит/сек
    Программа кодирования : MEncoder 1.0rc2-4.2.4
    Библиотека кодирования : MPlayer
    Видео
    Идентификатор : 0
    Формат : MPEG-4 Visual
    Профиль формата : Simple@L1
    Параметр BVOP формата : Нет
    Параметр QPel формата : Нет
    Параметр GMC формата : Без точки перехода
    Параметр матрицы формата : Default (H.263)
    Идентификатор кодека : XVID
    Идентификатор кодека/Подсказка : XviD
    Продолжительность : 1 ч. 14 м.
    Битрейт : 1258 Кбит/сек
    Ширина : 576 пикселей
    Высота : 288 пикселей
    Соотношение сторон : 2, 000
    Частота кадров : 25, 000 кадров/сек
    Цветовое пространство : YUV
    Субдискретизация насыщенности : 4:2:0
    Битовая глубина : 8 бит
    Тип развёртки : Прогрессивная
    Метод сжатия : С потерями
    Бит/(Пиксели*Кадры) : 0.303
    Размер потока : 673 Мбайт (90%)
    Библиотека кодирования : Lavc51.44.0
    Аудио
    Идентификатор : 1
    Формат : MPEG Audio
    Версия формата : Version 1
    Профиль формата : Layer 3
    Идентификатор кодека : 55
    Идентификатор кодека/Подсказка : MP3
    Продолжительность : 1 ч. 14 м.
    Вид битрейта : Постоянный
    Битрейт : 128 Кбит/сек
    Каналы : 2 канала
    Частота : 44, 1 КГц
    Метод сжатия : С потерями
    Размер потока : 68, 4 Мбайт (9%)
    Выравнивание : Соединение по промежуткам
    Продолжительность промежутка : 26 мс. (0, 65 видеокадр)
    Время предзагрузки промежутка : 522 мс.


    Скриншоты для ознакомления




    Небо нашего детства (1966) VHSRip
    загрузка...
    Рейтинг →
     (голосов: 1, оценка 5/5, голосовать можно 1 раз )

    Другие торренты по теме:

  • А.В. Засов. Лекция «Радио небо». Цикл «Разноцветное небо» (2014) WEBRip [H.264] [MP4|1920х1080]
  • А.В. Засов. Лекция «Инфракрасное небо». Цикл «Разноцветное небо» (2014) WEBRip [H.264] [MP4|1920х1080]
  • А.В. Засов. Лекция «Рентгеновское небо». Цикл «Разноцветное небо» (2014) WEBRip [H.264] [MP4|1920х1080]
  • Майкл Дрисколл | Звёздное небо. Путешествие в ночное небо. Звезды, планеты, галактики (2015) [PDF]
  • Небо падших (2014) WEBRip
  • Небо падших (2014) WEBRip
  • Обнимая небо (2013) HDTVRip [H.264] (Сезон 1, Серия 1-12 из 12)
  • Обнимая небо (2013) HDTVRip (серии 1-12 из 12)


    • Комментарии (0):

      Информация

      Информация

        Посетители, находящиеся в группе Гости, не могут оставлять комментарии в данной новости.

        ↓ Меню




        ↓ Опрос

        Вы добавили сайт в закладки?
        Да
        Нет


        Top 10 за месяц (Фильмы)