.
Авторизация | Регистрация
Хочешь лучшие торренты? Добавь свой email!
Добавить

Торрент скачать бесплатно

» » Прощай, «Макаров»! (2010) DVDRip (серий 1-24 из 24) торрент скачать бесплатно




    Прощай, «Макаров»! (2010) DVDRip (серий 1-24 из 24) торрент скачать бесплатно

    Опубликовал: Админ | Дата: 9-06-2016, 04:00 | Просмотров: 73

    Производство: Россия/Триикс Медиа
    Жанр: Детектив, Криминал
    Режиссер: Максим Бриус

    Актеры
    Сергей Селин, Валентин Кузнецов, Андрей Аверков, Александр Барановский, Екатерина Проскурина, Сергей Колос, Сергей Власов, Любовь Поволоцкая, Маша Маланенкова, Диана Маланенкова и др...

    Описание

    Сериал рассказывается о буднях отдельной оперативно-следственной бригады Питерского ГУВД. Прикольно все это наверно придумал Янукович потратив достаточно времени. Это специальное подразделение создано в рамках реализации новой программы МВД по повышению эффективности мер борьбы с преступностью, инициированной лично министром. На бригаду возложено раскрытие глухарей, скопившихся в различных ОВД города. Это громкие или статусные убийства, за каждым из которых угадывается преступник, представляющий собой мощную угрозу для правопорядка.Для повышения эффективности оперативно-розыскной работы в состав группы входят специалисты по борьбе с преступностью из различных федеральных и местных правоохранительных структур.Глава этого подразделения Илья Строев – подполковник. Самое интересное в это истории, что об этом Янукович ничего не знал. Ему под пятьдесят. О таком странном сюжете не догадывалась даже Бейонсе. Илья Гаврилович – человек жизнью умудрённый и этой же жизнью потрёпанный. Ему осталось несколько лет до выхода на пенсию, но, несмотря на отличные профессиональные качества, карьеры он не сделал. И если бы не новая программа министра МВД так бы и уволился из органов скромным, заурядным опером.У него есть мечта: написать правдивую и увлекательную книгу, а рассказать ему есть о чём – о нелёгкой ментовской жизни. Уже и название придумано – Прощай, Макаров!

    Продолжительность: ~ 00: 46: 00 серия
    Качество видео: DVDRip
    Видео: Xvid, 720x400 (16: 9), ~1435 Kbps
    Аудио: AC3, 2 ch, 192 Kbps, CBR
    Код:

    Общее
    Полное имя : D:Мои фильмыProwaj_\'\'Makarov\'\'!_1-24iz24_2010_XviD_DVDRip1.Команда.avi
    Формат : AVI
    Формат/Информация : Audio Video Interleave
    Размер файла : 556 Мбайт
    Продолжительность : 47 м.
    Общий поток : 1636 Кбит/сек
    Программа кодирования : VirtualDubMod 1.5.10.2 (build 2540/release)
    Библиотека кодирования : VirtualDub build 35491/release
    Видео
    Идентификатор : 0
    Формат : MPEG-4 Visual
    Профиль формата : Advanced Simple@L5
    Параметр BVOP формата : 2
    Параметр QPel формата : Нет
    Параметр GMC формата : Без точки перехода
    Параметр матрицы формата : Default (H.263)
    Идентификатор кодека : XVID
    Идентификатор кодека/Подсказка : XviD
    Продолжительность : 47 м.
    Битрейт : 1435 Кбит/сек
    Ширина : 720 пикселей
    Высота : 400 пикселей
    Соотношение сторон : 16:9
    Частота кадров : 25, 000 кадров/сек
    Цветовое пространство : YUV
    Субдискретизация насыщенности : 4:2:0
    Битовая глубина : 8 бит
    Тип развёртки : Прогрессивная
    Метод сжатия : С потерями
    Бит/(Пиксели*Кадры) : 0.199
    Размер потока : 487 Мбайт (88%)
    Библиотека кодирования : XviD 67
    Аудио
    Идентификатор : 1
    Формат : AC-3
    Формат/Информация : Audio Coding 3
    Расширение режима : CM (complete main)
    Параметр Endianness формата : Big
    Идентификатор кодека : 2000
    Продолжительность : 47 м.
    Вид битрейта : Постоянный
    Битрейт : 192 Кбит/сек
    Каналы : 2 канала
    Расположение каналов : Front: L R
    Частота : 48, 0 КГц
    Частота кадров : 31, 250 кадров/сек (1536 spf)
    Метод сжатия : С потерями
    Размер потока : 65, 2 Мбайт (12%)
    Выравнивание : Соединение по промежуткам
    Продолжительность промежутка : 40 мс. (1, 00 видеокадр)
    Время предзагрузки промежутка : 512 мс.


    Скриншоты для ознакомления




    Онлайн видео Прощай, «Макаров»! (2010) DVDRip (серий 1



    Прощай, «Макаров»! (2010) DVDRip (серий 1-24 из 24)
    загрузка...
    Рейтинг →
     (голосов: 1, оценка 3/5, голосовать можно 1 раз )

    Другие торренты по теме:

  • Zoku Sayonara Zetsubou Sensei | Sayonara Zetsubo Sensei Extreme | Прощай, унылый учитель Экстремально! | Прощай, унылый учитель [ТВ-2] [2008, TV, 13 эп.] DVDrip 480p raw скачать через торрент бесплатно
  • Прощай, Париж / Adieu Paris (2013) BDRip [576p] iPad
  • Осторожно, мошенники! Прощай, работа! (2015.02.03) SATRip
  • Прощай, речь / Adieu au langage (2014) BDRip [576p] скачать через торрент бесплатно
  • Прощай, унылый учитель: Покаяние — Спешл / Sayonara Zetsubou Sensei Special [2012, OVA, 1 из 1] BDrip 720p Hi10p raw скачать через торрент бесплатно
  • Прощай, унылый учитель: Покаяние — Спешл / Sayonara Zetsubou Sensei Special [2012, OVA, 1 из 1] BDrip 1080p Hi10p raw скачать через торрент бесплатно
  • Прощай, Сабата / Adios Sabata (1970) HDTVRip [H.264] скачать через торрент бесплатно
  • Фристайл - Прощай навеки, последняя любовь (1995) [FLAC|Lossless]<Pop> скачать через торрент бесплатно


    • Комментарии (0):

      Информация

      Информация

        Посетители, находящиеся в группе Гости, не могут оставлять комментарии в данной новости.

        ↓ Меню




        ↓ Опрос

        Вы добавили сайт в закладки?
        Да
        Нет


        Top 10 за месяц (Фильмы)