.
Авторизация | Регистрация
Хочешь лучшие торренты? Добавь свой email!
Добавить

Торрент скачать бесплатно

» » Демоны (2011) DVDRip (серии 1-16 из 16) торрент скачать бесплатно




    Демоны (2011) DVDRip (серии 1-16 из 16) торрент скачать бесплатно

    Опубликовал: Админ | Дата: 8-06-2016, 04:01 | Просмотров: 242

    Производство: Россия, Украина/StarMedia
    Жанр: Боевик, Детектив, Криминал
    Режиссер: Александр Будённый

    Актеры
    Александр Дьяченко, Семён Стругачёв, Андрей Межулис, Сергей Стрельников, Александр Кобзарь, Олег Васильков, Михаил Хмуров, Игорь Савочкин, Владимир Осадчий, Константин Воробьёв и др...

    Описание

    Дмитрий Назаров — главарь известной в прошлом преступной группировки Демоны — сколотил свой бизнес в лихие 90-е. Он, как и многие другие, стал жертвой своего времени, но отдал долги и расплатился по счетам. Сейчас он — владелец крупного развлекательного центра. Управлять делами Дмитрию помогают его сводный брат Леонид Чернобельский и бывший подельник Игорь Чесноков по прозвищу Чес.Бизнес легализирован, жизнь налажена, вся местная верхушка прикормлена, но по инерции бывшие подручные Дмитрия держатся вместе и находятся в постоянной боевой готовности, так как капитал, связи и возможности Демона — большой соблазн для многих. И новый виток трагических событий не заставляет себя долго ждать…

    Возраст: 16+ (зрителям, достигшим 16 лет)
    Продолжительность: ~ 00: 48: 00 серия
    Качество видео: DVDRip
    Видео: Xvid, 720x400 (16: 9), ~1396 Kbps
    Аудио: AC3, 2 ch, 192 Kbps, CBR
    Код:

    Общее
    Полное имя : D:Мои фильмыDemoni_01-16iz16_2011_XviD_DVDRipDemoni_01_iz_16_2011_DVDRip.avi
    Формат : AVI
    Формат/Информация : Audio Video Interleave
    Размер файла : 555 Мбайт
    Продолжительность : 48 м.
    Общий поток : 1598 Кбит/сек
    Программа кодирования : VirtualDubMod 1.5.10.2 (build 2540/release)
    Библиотека кодирования : VirtualDub build 35491/release
    Видео
    Идентификатор : 0
    Формат : MPEG-4 Visual
    Профиль формата : Advanced Simple@L5
    Параметр BVOP формата : 2
    Параметр QPel формата : Нет
    Параметр GMC формата : Без точки перехода
    Параметр матрицы формата : Default (H.263)
    Режим смешивания : Сжатый битовый поток
    Идентификатор кодека : XVID
    Идентификатор кодека/Подсказка : XviD
    Продолжительность : 48 м.
    Битрейт : 1396 Кбит/сек
    Ширина : 720 пикселей
    Высота : 400 пикселей
    Соотношение сторон : 16:9
    Частота кадров : 25, 000 кадров/сек
    Цветовое пространство : YUV
    Субдискретизация насыщенности : 4:2:0
    Битовая глубина : 8 бит
    Тип развёртки : Прогрессивная
    Метод сжатия : С потерями
    Бит/(Пиксели*Кадры) : 0.194
    Размер потока : 485 Мбайт (87%)
    Библиотека кодирования : XviD 65
    Аудио
    Идентификатор : 1
    Формат : AC-3
    Формат/Информация : Audio Coding 3
    Расширение режима : CM (complete main)
    Параметр Endianness формата : Big
    Идентификатор кодека : 2000
    Продолжительность : 48 м.
    Вид битрейта : Постоянный
    Битрейт : 192 Кбит/сек
    Каналы : 2 канала
    Расположение каналов : Front: L R
    Частота : 48, 0 КГц
    Частота кадров : 31, 250 кадров/сек (1536 spf)
    Метод сжатия : С потерями
    Размер потока : 66, 7 Мбайт (12%)
    Выравнивание : Соединение по промежуткам
    Продолжительность промежутка : 40 мс. Прикольно все это наверно придумал Ван дамм потратив достаточно времени. (1, 00 видеокадр)
    Время предзагрузки промежутка : 512 мс.


    Скриншоты для ознакомления




    Онлайн видео Демоны (2011) DVDRip (серии 1



    Демоны (2011) DVDRip (серии 1-16 из 16)
    загрузка...
    Рейтинг →
     (голосов: 1, оценка 5/5, голосовать можно 1 раз )

    Другие торренты по теме:

  • Артем Тихевич | О ментализме. Ангелы и демоны (2014) [DVDRip] скачать через торрент бесплатно


    • Комментарии (0):

      Информация

      Информация

        Посетители, находящиеся в группе Гости, не могут оставлять комментарии в данной новости.

        ↓ Меню




        ↓ Опрос

        Вы добавили сайт в закладки?
        Да
        Нет


        Top 10 за месяц (Фильмы)