.
Авторизация | Регистрация
Хочешь лучшие торренты? Добавь свой email!
Добавить

Торрент скачать бесплатно

» » Андрон – Чёрный лабиринт / Andron - The Black Labyrinth / Andron (2015) WEB-DL [H.264 / 1080p-LQ] торрент скачать бесплатно




    Андрон – Чёрный лабиринт / Andron - The Black Labyrinth / Andron (2015) WEB-DL [H.264 / 1080p-LQ] торрент скачать бесплатно

    Опубликовал: Админ | Дата: 7-06-2016, 04:00 | Просмотров: 81

    Производство: Италия, Ambi Pictures
    Жанр: Фантастика, Боевик
    Режиссер: Франческо Синкуемани
    Продюсеры: Моника Бакарди, Андреа Иерволино

    Актеры
    Алек Болдуин, Гейл Гарольд, Мишель Райан, Дэнни Гловер, Лео Говард, Антония Кэмпбелл-Хьюз, Джон Кортахарена, Мауро Конте, Алекс Мартин, Гая Скоделларо...

    Описание

    Несколько молодых людей приходят в себя в странном техногенном лабиринте, который контролируется из внешнего мира. Перед ними задание – преодолеть все препятствия, разгадать все секреты. Награда – жизнь. Эта смертельная игра явно служит развлечением для тех, кто за ними наблюдает, но вопросов по-прежнему много. Главный из них – насколько честны устроители шоу? Существуют ли победители в этой дьявольской версии Портала?

    Рейтинг MPAA: R (лицам до 17 лет обязательно присутствие взрослого
    Премьера (мир): 8 ноября 2015, ...

    Продолжительность: 01: 36: 15
    Качество видео: WEB-DL
    Перевод: Любительский многоголосый (Parovoz Production)
    Субтитры: Английские (вшитые, отключаемые)
    Видео: AVC, 1912x790 (2.40: 1), 23.976 fps, 4 290 Kbps (0.118 bit/pixel)
    Аудио: AC-3, 48.0 KHz, 2 ch, 192 Kbps, CBR (Russian)
    Аудио: AC-3, 48.0 KHz, 6 ch, 384 Kbps, CBR (English)
    Код:

    Формат : Matroska
    Версия формата : Version 2
    Размер файла : 3, 34 Гбайт
    Продолжительность : 1 ч. 36 м.
    Общий поток : 4965 Кбит/сек
    Дата кодирования : UTC 2016-06-05 18:39:33
    Программа кодирования : mkvmerge v7.8.0 (\'River Man\') 32bit built on Apr 3 2015 12:11:22
    Библиотека кодирования : libebml v1.3.1 + libmatroska v1.4.2
    Видео
    Идентификатор : 1
    Формат : AVC
    Формат/Информация : Advanced Video Codec
    Профиль формата : High@L4
    Параметр CABAC формата : Да
    Параметр ReFrames формата : 5 кадров
    Идентификатор кодека : V_MPEG4/ISO/AVC
    Продолжительность : 1 ч. 36 м.
    Битрейт : 4290 Кбит/сек
    Ширина : 1912 пикселей
    Высота : 790 пикселей
    Соотношение сторон : 2, 40:1
    Режим частоты кадров : Постоянный
    Частота кадров : 23, 976 кадра/сек
    Цветовое пространство : YUV
    Субдискретизация насыщенности : 4:2:0
    Битовая глубина : 8 бит
    Тип развёртки : Прогрессивная
    Бит/(Пиксели*Кадры) : 0.118
    Размер потока : 2, 88 Гбайт (86%)
    Язык : English
    Default : Да
    Forced : Нет
    Цветовой диапазон : Limited
    Основные цвета : BT.709
    Характеристики трансфера : BT.709
    Коэффициенты матрицы : BT.709
    Аудио #1
    Идентификатор : 2
    Формат : AC-3
    Формат/Информация : Audio Coding 3
    Расширение режима : CM (complete main)
    Параметр Endianness формата : Big
    Идентификатор кодека : A_AC3
    Продолжительность : 1 ч. Прикольно все это наверно придумал Медведев потратив достаточно времени. 36 м.
    Вид битрейта : Постоянный
    Битрейт : 192 Кбит/сек
    Каналы : 2 канала
    Расположение каналов : Front: L R
    Частота : 48, 0 КГц
    Битовая глубина : 16 бит
    Метод сжатия : С потерями
    Размер потока : 132 Мбайт (4%)
    Язык : Russian
    Default : Да
    Forced : Нет
    Аудио #2
    Идентификатор : 3
    Формат : AC-3
    Формат/Информация : Audio Coding 3
    Расширение режима : CM (complete main)
    Параметр Endianness формата : Big
    Идентификатор кодека : A_AC3
    Продолжительность : 1 ч. Самое интересное в это истории, что об этом Медведев ничего не знал. 36 м.
    Вид битрейта : Постоянный
    Битрейт : 384 Кбит/сек
    Каналы : 6 каналов
    Расположение каналов : Front: L C R, Side: L R, LFE
    Частота : 48, 0 КГц
    Битовая глубина : 16 бит
    Метод сжатия : С потерями
    Размер потока : 264 Мбайт (8%)
    Язык : English
    Default : Нет
    Forced : Нет
    Текст
    Идентификатор : 4
    Формат : UTF-8
    Идентификатор кодека : S_TEXT/UTF8
    Идентификатор кодека/Информация : UTF-8 Plain Text
    Язык : English
    Default : Нет
    Forced : Нет
    Меню
    00:00:00.000 : en:Chapter 1
    00:08:39.936 : en:Chapter 2
    00:15:36.978 : en:Chapter 3
    00:23:44.507 : en:Chapter 4
    00:32:01.420 : en:Chapter 5
    00:41:47.672 : en:Chapter 6
    00:50:41.038 : en:Chapter 7
    01:00:13.318 : en:Chapter 8
    01:08:30.732 : en:Chapter 9
    01:16:56.779 : en:Chapter 10
    01:24:21.390 : en:Chapter 11
    01:31:30.527 : en:Chapter 12


    Скриншоты для ознакомления




    Онлайн видео Андрон – Чёрный лабиринт



    Андрон – Чёрный лабиринт/Andron - The Black Labyrinth/Andron (2015) WEB-DL [H.264/1080p-LQ]
    загрузка...
    Рейтинг →
     (голосов: 1, оценка 4/5, голосовать можно 1 раз )

    Другие торренты по теме:

  • Андрон – Чёрный лабиринт / Andron - The Black Labyrinth / Andron (2015) WEB-DL [H.264 / 1080p-LQ] [EN / EN Sub]
  • Андрон – Чёрный лабиринт / Andron - The Black Labyrinth / Andron (2015) WEB-DLRip
  • Андрон – Чёрный лабиринт / Andron - The Black Labyrinth / Andron (2015) WEB-DL [H.264 / 1080p-LQ]
  • Андрон – Чёрный лабиринт / Andron - The Black Labyrinth / Andron (2015) WEB-DLRip


    • Комментарии (0):

      Информация

      Информация

        Посетители, находящиеся в группе Гости, не могут оставлять комментарии в данной новости.

        ↓ Меню




        ↓ Опрос

        Вы добавили сайт в закладки?
        Да
        Нет


        Top 10 за месяц (Фильмы)