.
Авторизация | Регистрация
Хочешь лучшие торренты? Добавь свой email!
Добавить

Торрент скачать бесплатно

» » Андрон – Чёрный лабиринт / Andron - The Black Labyrinth / Andron (2015) WEB-DL [H.264 / 1080p-LQ] торрент скачать бесплатно




    Андрон – Чёрный лабиринт / Andron - The Black Labyrinth / Andron (2015) WEB-DL [H.264 / 1080p-LQ] торрент скачать бесплатно

    Опубликовал: Админ | Дата: 6-06-2016, 04:00 | Просмотров: 78

    Производство: Италия, Ambi Pictures
    Жанр: Фантастика, Боевик
    Режиссер: Франческо Синкуемани
    Продюсер: Моника Бакарди, Андреа Иерволино

    Актеры
    Алек Болдуин, Гейл Гарольд, Мишель Райан, Дэнни Гловер, Лео Говард, Антония Кэмпбелл-Хьюз, Джон Кортахарена, Мауро Конте, Алекс Мартин, Гая Скоделларо...

    Описание

    Несколько молодых людей приходят в себя в странном техногенном лабиринте, который контролируется из внешнего мира. Перед ними задание – преодолеть все препятствия, разгадать все секреты. Награда – жизнь. Эта смертельная игра явно служит развлечением для тех, кто за ними наблюдает, но вопросов по-прежнему много. Вашими молитвами, сказал кто то из толпы, к чему не понятно. Главный из них – насколько честны устроители шоу? Существуют ли победители в этой дьявольской версии Портала?

    Рейтинг MPAA: R (лицам до 17 лет обязательно присутствие взрослого
    Премьера (мир): 8 ноября 2015, ...

    Продолжительность: 01: 35: 31
    Качество видео: WEB-DL
    Перевод: Любительский многоголосый
    Субтитры: Отсутствуют
    Реклама: Присутствуют вставки голосовой и текстовой рекламы.
    Видео: AVC, 1912x790 (2.40: 1), 23.976 fps, 4 066 Kbps (0.112 bit/pixel)
    Аудио: AC-3, 48.0 KHz, 2 ch, 384 Kbps, CBR
    Код:

    Формат : Matroska
    Версия формата : Version 4/Version 2
    Размер файла : 3, 03 Гбайт
    Продолжительность : 1 ч. 35 м.
    Режим общего битрейта : Постоянный
    Общий поток : 4541 Кбит/сек
    Дата кодирования : UTC 2016-06-05 16:31:29
    Программа кодирования : mkvmerge v7.6.0 (\'Garden of Dreams\') 64bit built on Feb 8 2015 13:04:34
    Библиотека кодирования : libebml v1.3.1 + libmatroska v1.4.2
    _STATISTICS_WRITING_APP : mkvmerge v7.6.0 (\'Garden of Dreams\') 64bit built on Feb 8 2015 13:04:34
    _STATISTICS_WRITING_DATE_UTC : 2016-06-05 16:31:29
    _STATISTICS_TAGS : BPS DURATION NUMBER_OF_FRAMES NUMBER_OF_BYTES
    DURATION : 01:35:31.296000000
    NUMBER_OF_FRAMES : 179103
    NUMBER_OF_BYTES : 275102208
    Видео
    Идентификатор : 1
    Формат : AVC
    Формат/Информация : Advanced Video Codec
    Профиль формата : High@L4
    Параметр CABAC формата : Да
    Параметр ReFrames формата : 5 кадров
    Идентификатор кодека : V_MPEG4/ISO/AVC
    Продолжительность : 1 ч. 35 м.
    Вид битрейта : Постоянный
    Битрейт : 4066 Кбит/сек
    Номинальный битрейт : 4500 Кбит/сек
    Ширина : 1912 пикселей
    Высота : 790 пикселей
    Соотношение сторон : 2, 40:1
    Режим частоты кадров : Постоянный
    Частота кадров : 23, 976 кадра/сек
    Стандарт вещания : Component
    Цветовое пространство : YUV
    Субдискретизация насыщенности : 4:2:0
    Битовая глубина : 8 бит
    Тип развёртки : Прогрессивная
    Бит/(Пиксели*Кадры) : 0.112
    Размер потока : 2, 71 Гбайт (90%)
    Default : Да
    Forced : Нет
    Цветовой диапазон : Limited
    Основные цвета : BT.709
    Характеристики трансфера : BT.709
    Коэффициенты матрицы : BT.709
    Аудио
    Идентификатор : 2
    Формат : AC-3
    Формат/Информация : Audio Coding 3
    Расширение режима : CM (complete main)
    Параметр Endianness формата : Big
    Идентификатор кодека : A_AC3
    Продолжительность : 1 ч. 35 м.
    Вид битрейта : Постоянный
    Битрейт : 384 Кбит/сек
    Каналы : 2 канала
    Расположение каналов : Front: L R
    Частота : 48, 0 КГц
    Битовая глубина : 16 бит
    Метод сжатия : С потерями
    Задержка видео : 7 мс.
    Размер потока : 262 Мбайт (8%)
    Default : Да
    Forced : Нет


    Скриншоты для ознакомления




    Онлайн видео Андрон – Чёрный лабиринт



    Андрон – Чёрный лабиринт/Andron - The Black Labyrinth/Andron (2015) WEB-DL [H.264/1080p-LQ]
    загрузка...
    Рейтинг →
     (голосов: 1, оценка 5/5, голосовать можно 1 раз )

    Другие торренты по теме:

  • Андрон – Чёрный лабиринт / Andron - The Black Labyrinth / Andron (2015) WEB-DL [H.264 / 1080p-LQ] [EN / EN Sub]
  • Андрон – Чёрный лабиринт / Andron - The Black Labyrinth / Andron (2015) WEB-DLRip
  • Андрон – Чёрный лабиринт / Andron - The Black Labyrinth / Andron (2015) WEB-DLRip
  • Андрон – Чёрный лабиринт / Andron - The Black Labyrinth / Andron (2015) WEB-DL [H.264 / 1080p-LQ]


    • Комментарии (0):

      Информация

      Информация

        Посетители, находящиеся в группе Гости, не могут оставлять комментарии в данной новости.

        ↓ Меню




        ↓ Опрос

        Вы добавили сайт в закладки?
        Да
        Нет


        Top 10 за месяц (Фильмы)