.
Авторизация | Регистрация
Хочешь лучшие торренты? Добавь свой email!
Добавить

Торрент скачать бесплатно

» » Друзья / Friends (1995) BDRemux [H.264 / 1080р] (сезон 2, серии 1-24 из 24) True Dubbing Studio торрент скачать бесплатно




    Друзья / Friends (1995) BDRemux [H.264 / 1080р] (сезон 2, серии 1-24 из 24) True Dubbing Studio торрент скачать бесплатно

    Опубликовал: Админ | Дата: 6-06-2016, 04:00 | Просмотров: 79

    Производство: США
    Жанр: Комедия, Мелодрама
    Режиссер: Джеймс Берроуз, Пол Лазарус, Алан Майерсон, Питер Бонерз

    Актеры
    Дженнифер Энистон, Кортни Кокс, Лиза Кудроу, Мэтт ЛеБлан, Мэттью Перри, Дэвид Швиммер и др.

    Описание

    Сериал посвящён жизни шестерых друзей: избалованной папенькиной дочки Рейчел Грин; чистюли-повара Моники Геллер; комплексующего остряка, офисного работника Чендлера Бинга; помешанного на сексе и еде, простоватого, ждущего своей роли актёра Джоуи Триббиани; разведённого палеонтолога Росса Геллера; хиппующей массажистки и певицы Фиби Буффе.

    Возраст: 12+ (зрителям, достигшим 12 лет)
    Рейтинг MPAA: PG-13 (детям до 13 лет просмотр нежелателен)
    Релиз от: HDCLUB
    Продолжительность: ~00: 25: 00 серия
    Качество видео: BDRemux
    Перевод: Многоголосый закадровый, профессиональный - True Dubbing Studio по заказу Paramount Comedy
    Вид субтитров: Вшитые отключаемые
    Язык субтитров: Английский
    Видео: AVC/H.264, 1920x1080, ~15 Mbps
    Аудио 1: AC3, 2 ch, 192 Kbps, CBR - русский, многоголосый закадровый
    Аудио 2: AC3, 6 ch, 640 Kbps, CBR - английский
    Код:

    Общее
    Уникальный идентификатор : 249029496534294968308667072241481894549 (0xBB595621012231BEBFA3A383605D4A95)
    Полное имя : Друзья S02 1080p BDRemux1. Друзья [Сезон 2] Эпизод с новой подругой Росса.mkv
    Формат : Matroska
    Версия формата : Version 4/Version 2
    Размер файла : 2, 45 Гбайт
    Продолжительность : 22 м.
    Режим общего битрейта : Переменный
    Общий поток : 15, 8 Мбит/сек
    Название фильма : Friends 2x01 (1995)
    Дата кодирования : UTC 2016-05-04 07:59:50
    Программа кодирования : mkvmerge v9.0.1 (\'Obstacles\') 64bit
    Библиотека кодирования : libebml v1.3.3 + libmatroska v1.4.4
    Видео
    Идентификатор : 1
    Формат : AVC
    Формат/Информация : Advanced Video Codec
    Профиль формата : High@L4
    Параметр CABAC формата : Да
    Параметр ReFrames формата : 4 кадра
    Идентификатор кодека : V_MPEG4/ISO/AVC
    Продолжительность : 22 м.
    Вид битрейта : Переменный
    Битрейт : 15, 0 Мбит/сек
    Максимальный битрейт : 24, 0 Мбит/сек
    Ширина : 1920 пикселей
    Высота : 1080 пикселей
    Соотношение сторон : 16:9
    Режим частоты кадров : Постоянный
    Частота кадров : 23, 976 (24000/1001) кадра/сек
    Цветовое пространство : YUV
    Субдискретизация насыщенности : 4:2:0
    Битовая глубина : 8 бит
    Тип развёртки : Прогрессивная
    Бит/(Пиксели*Кадры) : 0.302
    Размер потока : 2, 32 Гбайт (95%)
    Заголовок : Friends 2x01
    Библиотека кодирования : x264 core 104 r1683 62997d6
    Настройки программы : cabac=1/ref=3/deblock=1:-1:-1/analyse=0x3:0x133/me=umh/subme=10/psy=1/psy_rd=1.00:0.25/mixed_ref=1/me_range=24/chroma_me=1/trellis=2/8x8dct=1/cqm=0/deadzone=6, 6/fast_pskip=0/chroma_qp_offset=-4/threads=12/sliced_threads=0/slices=1/nr=0/decimate=0/interlaced=0/constrained_intra=0/bframes=2/b_pyramid=2/b_adapt=2/b_bias=0/direct=3/weightb=1/open_gop=2/weightp=0/keyint=24/keyint_min=2/scenecut=40/intra_refresh=0/rc_lookahead=24/rc=2pass/mbtree=1/bitrate=15000/ratetol=1.0/qcomp=0.80/qpmin=4/qpmax=51/qpstep=4/cplxblur=20.0/qblur=0.5/vbv_maxrate=24000/vbv_bufsize=20000/ip_ratio=1.10/aq=1:0.50/nal_hrd=vbr
    Язык : English
    Default : Нет
    Forced : Нет
    Цветовой диапазон : Limited
    Основные цвета : BT.709
    Характеристики трансфера : BT.709
    Коэффициенты матрицы : BT.709
    Аудио #1
    Идентификатор : 2
    Формат : AC-3
    Формат/Информация : Audio Coding 3
    Расширение режима : CM (complete main)
    Параметр Endianness формата : Big
    Идентификатор кодека : A_AC3
    Продолжительность : 22 м.
    Вид битрейта : Постоянный
    Битрейт : 192 Кбит/сек
    Каналы : 2 канала
    Расположение каналов : Front: L R
    Частота : 48, 0 КГц
    Частота кадров : 31, 250 кадров/сек (1536 spf)
    Метод сжатия : С потерями
    Размер потока : 30, 5 Мбайт (1%)
    Язык : Russian
    Default : Да
    Forced : Нет
    Аудио #2
    Идентификатор : 3
    Формат : AC-3
    Формат/Информация : Audio Coding 3
    Расширение режима : CM (complete main)
    Параметр Endianness формата : Big
    Идентификатор кодека : A_AC3
    Продолжительность : 22 м.
    Вид битрейта : Постоянный
    Битрейт : 640 Кбит/сек
    Каналы : 6 каналов
    Расположение каналов : Front: L C R, Side: L R, LFE
    Частота : 48, 0 КГц
    Частота кадров : 31, 250 кадров/сек (1536 spf)
    Метод сжатия : С потерями
    Размер потока : 102 Мбайт (4%)
    Язык : English
    Default : Нет
    Forced : Нет
    Текст
    Идентификатор : 4
    Формат : PGS
    Режим смешивания : zlib
    Идентификатор кодека : S_HDMV/PGS
    Идентификатор кодека/Информация : Picture based subtitle format used on BDs/HD-DVDs
    Продолжительность : 21 м.
    Битрейт : 17, 8 Кбит/сек
    Count of elements : 732
    Размер потока : 2, 72 Мбайт (0%)
    Язык : English
    Default : Нет
    Forced : Нет


    Скриншоты для ознакомления




    Онлайн видео Друзья



    Друзья/Friends (1995) BDRemux [H.264/1080р] (сезон 2, серии 1-24 из 24) True Dubbing Studio
    загрузка...
    Рейтинг →
     (голосов: 1, оценка 3/5, голосовать можно 1 раз )

    Другие торренты по теме:

  • Друзья / Friends (1994–2004) BDRip [H.264 / 720p-LQ] [Hi10P] (Сезон 1-10, серии 1-236 из 236 + бонусы) скачать через торрент бесплатно
  • Друзья / Friends (1994-2004) BDRip (сезон 1-10, серии 1-236 из 236) РТР скачать через торрент бесплатно
  • Друзья / Friends (1994) BDRemux [H.264 / 1080р] (сезон 1, серии 1-24 из 24) True Dubbing Studio
  • Друзья / Friends (1996) BDRip [H.264 / 720р] (Сезон 3, серии 1-25 из 25) True Dubbing Studio, PTP, 1+1
  • Друзья / Friends (1997) BDRip [H.264 / 720р] (Сезон 4, серии 1-24 из 24) True Dubbing Studio, PTP, 1+1
  • Друзья / Friends (1998) BDRip [H.264 / 720р] (Сезон 5, серии 1-24 из 24) True Dubbing Studio, PTP, 1+1
  • Друзья / Friends (1999) BDRip [H.264 / 720р] (Сезон 6, серии 1-25 из 25) True Dubbing Studio, Россия, 1+1
  • Друзья / Friends (2000) BDRip [H.264 / 720р] (Сезон 7, серии 1-24 из 24) True Dubbing Studio, СТС, 1+1


    • Комментарии (0):

      Информация

      Информация

        Посетители, находящиеся в группе Гости, не могут оставлять комментарии в данной новости.

        ↓ Меню




        ↓ Опрос

        Вы добавили сайт в закладки?
        Да
        Нет


        Top 10 за месяц (Фильмы)