.
Авторизация | Регистрация
Хочешь лучшие торренты? Добавь свой email!
Добавить

Торрент скачать бесплатно

» » Сергей Варламов | Технология изготовления фасадов постформинг без дорогостоящего оборудования! (2011) TS торрент скачать бесплатно



    Сергей Варламов | Технология изготовления фасадов постформинг без дорогостоящего оборудования! (2011) TS торрент скачать бесплатно

    Опубликовал: Админ | Дата: 31-05-2016, 04:00 | Просмотров: 107

    Автор (режиссер): Сергей Варламов
    Производство: Сергей Варламов и Издательство SM
    Жанр: Изготовление мебели, мультимедийный курс

    Описание

    Низкая себестоимость и высокая конечная цена фасадов, наличие минимального набора инструментов и самодельных приспособлений. Самое интересное в это истории, что об этом Медведев ничего не знал. Все это делает технологию Постформинг очень привлекательной для широкого круга мебельщиков, желающих увеличить свой доход и расширить ассортимент выпускаемой продукции.
    Что же такое мебельный фасад?
    Ответить на этот вопрос можно по-разному. Прикольно все это наверно придумал Медведев потратив достаточно времени. Фасад — это лицо мебели, это все дверки, используемые в корпусной мебели, и ни для кого не секрет, что хороший фасад — это основная составляющая цены на мебель.
    Впечатление от мебели у заказчика складывается в совокупности внешнего вида, практичности, качества материалов, надежности конструкции и, конечно же, цены. И никакая дорогая фурнитура, ни качественно выполненные мебельные каркасы, не помогут вам построить успешный бизнес при использовании некачественных и неконкурентоспособных фасадов.
    Народ требует пластик!
    В последнее время все большей популярностью стали пользоваться фасады постформинг, а рамочные и пленочные фасады уходят на второй план. Народ требует пластик!
    Мебельные фасады постформинг имеют самую широкую область применения. От кухонной и офисной мебели до барных стоек в кафе и ресторанах. Стойкий, ударопрочный пластик защитит поверхность мебели от воздействия влаги, высоких температур, истирания и сколов.
    Использование данной технологии позволяет изготавливать различные виды фасадов (прямые, криволинейные, гнутые и т.д.) любых размеров, не привязанных к размерному ряду.
    Огромная цветовая гамма итальянских пластиков дает явные конкурентные преимущества. Такого количества расцветок нет у других типов фасадов.
    Продолжительность: 02: 33: 06
    Качество видео: TS
    Видео: AVC/H.264, 700x564, ~252 Kbps
    Аудио: AAC, 2 ch, 44.1 KHz, VBR
    Код:

    General
    Complete name : E:Технология изготовления фасадов постформинг без дорогостоящего оборудования!contentvideo1.mp4
    Format : MPEG-4
    Format profile : Base Media/Version 2
    Codec ID : mp42
    File size : 7.87 MiB
    Duration : 2mn 53s
    Overall bit rate mode : Variable
    Overall bit rate : 381 Kbps
    Encoded date : UTC 2013-10-09 10:43:08
    Tagged date : UTC 2013-10-09 10:43:08
    Video
    ID : 1
    Format : AVC
    Format/Info : Advanced Video Codec
    Format profile :Baseline@L3.0
    Format settings, CABAC : No
    Format settings, ReFrames : 3 frames
    Format settings, GOP : M=1, N=120
    Codec ID : avc1
    Codec ID/Info : Advanced Video Coding
    Duration : 2mn 53s
    Source duration : 2mn 53s
    Bit rate mode : Variable
    Bit rate : 252 Kbps
    Width : 700 pixels
    Height : 564 pixels
    Display aspect ratio : 5:4
    Frame rate mode : Variable
    Frame rate : 24.000 fps
    Minimum frame rate : 24.000 fps
    Maximum frame rate : 24.024 fps
    Color space : YUV
    Chroma subsampling : 4:2:0
    Bit depth : 8 bits
    Scan type : Progressive
    Bits/(Pixel*Frame) : 0.027
    Stream size : 5.22 MiB (66%)
    Source stream size : 5.22 MiB (66%)
    Language : English
    Encoded date : UTC 2013-10-09 10:43:08
    Tagged date : UTC 2013-10-09 10:43:08
    mdhd_Duration : 173542
    Audio
    ID : 2
    Format : AAC
    Format/Info : Advanced Audio Codec
    Format profile : LC
    Codec ID : 40
    Duration : 2mn 53s
    Source duration : 2mn 53s
    Bit rate mode : Variable
    Bit rate : 126 Kbps
    Maximum bit rate : 148 Kbps
    Channel count : 2 channels
    Channel positions : Front: L R
    Sampling rate : 44.1 KHz
    Compression mode : Lossy
    Stream size : 2.60 MiB (33%)
    Source stream size : 2.60 MiB (33%)
    Language : English
    Encoded date : UTC 2013-10-09 10:43:08
    Tagged date : UTC 2013-10-09 10:43:08
    mdhd_Duration : 173569


    Скриншоты для ознакомления



    Прямая ссылка скачивания через uTorrent


    Сергей Варламов | Технология изготовления фасадов постформинг без дорогостоящего оборудования! (2011) TS
    загрузка...
    Рейтинг →
     (голосов: 1, оценка 3/5, голосовать можно 1 раз )

    Другие торренты по теме:

  • Сергей Гвоздика - Сергей Гвоздика (2014) [MP3|320 кб / с]<Шансон> скачать через торрент бесплатно
  • Сергей Кабаченко | Веселая кулинария для детей. 100+ идей для творчества (2012) [PDF]
  • Сергей Дудин - Вечный зов (2006) [MP3|320 кб / с]<Progressive Rock>
  • Сергей Снегов | Экспедиция в иномир [Главы 1-02 из 31. Обновляемая] (2014) [MP3] скачать через торрент бесплатно
  • Сергей Тармашев | Сборник произведений (2011-2014) [OGG] скачать через торрент бесплатно
  • Сергей Брежнев | Мастер-класс по работе с цветом и тонировке (2014) PCRec (H.264) скачать через торрент бесплатно
  • Сергей Малицкий | Собрание сочинений [24 книги] (1999-2014) [FB2]
  • Бокс. Бернард Хопкинс - Сергей Ковалёв / Bernard Hopkins vs Sergey Kovalev(08 / 11 / 2014) HDTVRip [H.264 / 1080i] скачать через торрент бесплатно


    • Комментарии (0):

      Информация

      Информация

        Посетители, находящиеся в группе Гости, не могут оставлять комментарии в данной новости.

        ↓ Меню




        ↓ Опрос

        Вы добавили сайт в закладки?
        Да
        Нет


        Top 10 за месяц (Книги)

        Джиллиан Майклз | Знаменитая программа Джиллиан Майклз: Стройное и здоровое тело за 30 дней (2016) [FB2]

        (скачиваний: 54)
        И.Б. Фефилова | Антивозрастная медицина. Современная энциклопедия (2015) [PDF, EPUB]

        (скачиваний: 31)
        Михаил Диденко | Русский стиль выживания. Как остаться в живых одному в лесу (2017) [PDF, FB2]

        (скачиваний: 26)
        Михаил Лабковский | Хочу и буду: Принять себя, полюбить жизнь и стать счастливым (2017) [FB2, EPUB]

        (скачиваний: 24)
        Александр Клинге | Ленин. Самая правдивая биография Ильича (2017) [FB2, EPUB]

        (скачиваний: 23)
        Евгений Старухин | Цикл «Лесовик» [4 книги. Обновляемая] (2015-2017) [FB2]

        (скачиваний: 20)
        Давид Дубницкий | Жанровый НЮ-портрет (2016) PCRec

        (скачиваний: 20)
        Дэвид Агус | Завтра начинается сегодня. Как воспользоваться достижениями anti-age медицины (2017) [FB2, EPUB]

        (скачиваний: 20)
        Джон Дуглас, Марк Олшейкер | Психологический портрет убийцы. Методики ФБР (2016) [FB2, EPUB]

        (скачиваний: 19)
        Лидия Резник | 25 любимых специй (2017) [FB2]

        (скачиваний: 19)