.
Авторизация | Регистрация
Хочешь лучшие торренты? Добавь свой email!
Добавить

Торрент скачать бесплатно

» » Greg Zaal | CG Masters - Character Creation Volume 3.5 Cycles Convert (2016) PCRec торрент скачать бесплатно




    Greg Zaal | CG Masters - Character Creation Volume 3.5 Cycles Convert (2016) PCRec торрент скачать бесплатно

    Опубликовал: Админ | Дата: 7-05-2016, 04:00 | Просмотров: 55

    Автор (режиссер): Greg Zaal
    Жанр: Blender, Обучающее видео

    Описание

    В этом сокращенном учебном курсе, Greg Zaal показывает вам все, что нужно знать, чтобы создать свои собственные реалистичные и физически точные Cycles материалы.
    Кроме того, вы узнаете, не только как использовать движок рендеринга , но Вы также узнаете основные принципы физической основы затенения. Используя модель ниндзя в качестве примера, мы будем проходить через все различные виды поверхностей и словно птица изучим, как и почему они выглядят так, как они это делают, а затем повторим использование узлов на основе материалов.
    Этот курс предназначен для пользователей Blender , которые имеют предыдущий опыт работы со старым движком рендеринга Blender и хотели бы начать свои приключения с современным путем трейсера, Cycles . Белая горячка, сказал кто то из толпы, к чему не понятно. Но если вы новичок материалов и текстур в целом , не волнуйтесь , все основы объясняются тщательно
    Software Used: Blender 2.7x (Cycles)
    Skill Level: Intermediate
    Продолжительность: 02: 29: 00
    Качество видео: PCRec
    Язык: Английский
    Видео: VP8, 1920Х1018 (16: 9), ~2327 Kbps
    Аудио: OGG, 1 ch, 80 Kbps, VBR
    Код:

    Общее
    Уникальный идентификатор : 237494708333796293115550616450415076001 (0xB2ABD1299F5443AD8A2811F9F18622A1)
    Полное имя : E:TUTTORIALSCG Masters - Character Creation Volume 3.5 Cycles Convertvideos0.webm
    Формат : WebM
    Версия формата : Version 2
    Размер файла : 199 Мбайт
    Продолжительность : 11 м.
    Режим общего битрейта : Переменный
    Общий поток : 2515 Кбит/сек
    Программа кодирования : Lavf55.0.100
    Библиотека кодирования : Lavf55.0.100
    Видео
    Идентификатор : 1
    Формат : VP8
    Идентификатор кодека : V_VP8
    Продолжительность : 11 м.
    Битрейт : 2327 Кбит/сек
    Ширина : 1920 пикселей
    Высота : 1018 пикселей
    Соотношение сторон : 1, 886
    Режим частоты кадров : Постоянный
    Частота кадров : 24, 000 кадра/сек
    Метод сжатия : С потерями
    Бит/(Пиксели*Кадры) : 0.050
    Размер потока : 184 Мбайт (93%)
    Default : Да
    Forced : Нет
    Аудио
    Идентификатор : 2
    Формат : Vorbis
    Параметр Floor формата : 1
    Идентификатор кодека : A_VORBIS
    Продолжительность : 11 м.
    Вид битрейта : Переменный
    Битрейт : 80, 0 Кбит/сек
    Каналы : 1 канал
    Частота : 48, 0 КГц
    Метод сжатия : С потерями
    Задержка видео : -3 мс.
    Размер потока : 6, 33 Мбайт (3%)
    Программа кодирования : Lavc55.0.100
    Библиотека кодирования : libVorbis (Omnipresent) (20120203 (Omnipresent))
    Default : Да
    Forced : Нет


    Скриншоты для ознакомления




    Greg Zaal | CG Masters - Character Creation Volume 3.5 Cycles Convert (2016) PCRec
    загрузка...
    Рейтинг →
     (голосов: 1, оценка 5/5, голосовать можно 1 раз )

    Другие торренты по теме:

  • Greg Howe - Greg Howe (1988) [FLAC|Lossless|tracks + .cue] <Instrumental Rock, Classic Rock, Hard Rock>
  • Greg Fiasco - Clockwerk EP (2014) [MP3|320 кб / с]<Drum & Bass>
  • Greg Miller - Destination For Dreamers (2015) [MP3|320 кб / с]<Harmonica Blues> скачать через торрент бесплатно
  • Greg Maroney - Quiet Piano Improvisations, Vol. 1 (2016) [MP3|320 кб / с] <Instrumental, New Age, Piano solo>
  • Greg Howe - Sound Proof (2008) [FLAC|Lossless|tracks + .cue] <Jazz, Fusion>
  • Greg Serrato - Holy Smokes (1999) [MP3|256 Kbps] <Electric Blues, Blues Rock, Chicago Blues>
  • Greg Joy - Light of Day (2016) [FLAC|Lossless|WEB-DL|tracks] <New Age>
  • Greg Adams - East Bay Soul: Thats Life (2015) [FLAC|Lossless|tracks + .cue] <Smooth Jazz, Jazz-Funk>


    • Комментарии (0):

      Информация

      Информация

        Посетители, находящиеся в группе Гости, не могут оставлять комментарии в данной новости.

        ↓ Меню




        ↓ Опрос

        Вы добавили сайт в закладки?
        Да
        Нет


        Top 10 за месяц (Книги)

        Марк Мэнсон | Тонкое искусство пофигизма. Парадоксальный способ жить счастливо (2017) [FB2, RTF]

        (скачиваний: 33)
        А.В. Дроган | Разумная психология. НЛП с нуля или игры разума (2006) [FB2, EPUB]

        (скачиваний: 26)
        Лисса Рэнкин | Исцеление от страха (2015) [FB2, EPUB]

        (скачиваний: 25)
        Павел Секун | Вы будете богаты и счастливы, если сделаете все, что написано в этой книге (2016) [FB2, EPUB]

        (скачиваний: 23)
        Борис Акимов | Медитация. Самовнушение. Аутотренинг. Самые эффективные психотехники (2014) [FB2, EPUB]

        (скачиваний: 21)
        Брайан Кристиан, Том Гриффитс | Алгоритмы для жизни: Простые способы принимать верные решения (2017) [FB2]

        (скачиваний: 21)
        Книжная серия | Тайны Третьего Рейха [6 книг] (2000-2011) [FB2, EPUB]

        (скачиваний: 21)
        Геннадий Кибардин | Су-Джок лечит: мигрень, кашель, боль в спине, тяжесть в желудке (2016) [FB2, EPUB]

        (скачиваний: 20)
        Е. Афанасова | Готовим вино, наливки, настойки (2017) [PDF]

        (скачиваний: 20)
        Эмма Сарджент, Тим Фиерон | Научиться вести разговор в любой ситуации (2012) [PDF]

        (скачиваний: 20)