.
Авторизация | Регистрация
Хочешь лучшие торренты? Добавь свой email!
Добавить

Торрент скачать бесплатно

» » Алексей Калинин | Геймдизайн: по ту сторону игры (2016) HDRip [H.264 / 720p] торрент скачать бесплатно




    Алексей Калинин | Геймдизайн: по ту сторону игры (2016) HDRip [H.264 / 720p] торрент скачать бесплатно

    Опубликовал: Админ | Дата: 19-04-2016, 04:00 | Просмотров: 294

    Автор (режиссер): Алексей Калинин
    Жанр: Разработка игр
    Производство: Универсариум

    Описание

    Из наших лекций вы узнаете о профессии геймдизайнера и его роли в разработке игры. Вы освоите основные приемы составления дизайн-документа, а также поймете, как рассчитывать баланс, определять точки фана, составлять редакторы игровых персонажей и локаций. Этот курс предназначен для начинающих геймдизайнеров и будет полезен всем, кто хочет узнать, как создаются игры.
    Продолжительность: 03: 51: 40
    Качество видео: HDRip
    Видео: AVC/H.264, 1280х720, ~600 Kbps
    Аудио: AAC, 2 ch, 80 Kbps, VBR
    Код:

    General
    Complete name : C:TorrentsКалинин Алексей - Геймдизайн - по ту сторону игры (2016)Модуль 1. Введение в геймдизайн1.1 - Профессия геймдизайнер.mp4
    Format : MPEG-4
    Format profile : Base Media
    Codec ID : isom
    File size : 73.3 MiB
    Duration : 14mn 30s
    Overall bit rate mode : Variable
    Overall bit rate : 707 Kbps
    Writing application : Lavf56.15.102
    Video
    ID : 2
    Format : AVC
    Format/Info : Advanced Video Codec
    Format profile :Baseline@L3.1
    Format settings, CABAC : No
    Format settings, ReFrames : 1 frame
    Codec ID : avc1
    Codec ID/Info : Advanced Video Coding
    Duration : 14mn 30s
    Bit rate : 600 Kbps
    Width : 1 280 pixels
    Height : 720 pixels
    Display aspect ratio : 16:9
    Frame rate mode : Constant
    Frame rate : 25.000 fps
    Color space : YUV
    Chroma subsampling : 4:2:0
    Bit depth : 8 bits
    Scan type : Progressive
    Bits/(Pixel*Frame) : 0.026
    Stream size : 64.6 MiB (88%)
    Writing library : x264 core 142
    Encoding settings : cabac=0/ref=1/deblock=1:0:0/analyse=0x1:0x111/me=hex/subme=7/psy=1/psy_rd=1.00:0.00/mixed_ref=0/me_range=16/chroma_me=1/trellis=1/8x8dct=0/cqm=0/deadzone=21, 11/fast_pskip=1/chroma_qp_offset=-2/threads=48/lookahead_threads=5/sliced_threads=0/nr=0/decimate=1/interlaced=0/bluray_compat=0/constrained_intra=0/bframes=0/weightp=0/keyint=90/keyint_min=9/scenecut=40/intra_refresh=0/rc_lookahead=40/rc=abr/mbtree=1/bitrate=600/ratetol=1.0/qcomp=0.60/qpmin=0/qpmax=69/qpstep=4/vbv_maxrate=1000/vbv_bufsize=10000/nal_hrd=none/filler=0/ip_ratio=1.40/aq=1:1.00
    Language : English
    Audio
    ID : 1
    Format : AAC
    Format/Info : Advanced Audio Codec
    Format profile : LC
    Codec ID : 40
    Duration : 14mn 30s
    Bit rate mode : Variable
    Bit rate : 80.0 Kbps
    Maximum bit rate : 1 000 Kbps
    Channel(s) : 2 channels
    Channel positions : Front: L R
    Sampling rate : 48.0 KHz
    Compression mode : Lossy
    Stream size : 8.30 MiB (11%)
    Language : English


    Скриншоты для ознакомления




    Алексей Калинин | Геймдизайн: по ту сторону игры (2016) HDRip [H.264/720p]
    загрузка...
    Рейтинг →
     (голосов: 1, оценка 3/5, голосовать можно 1 раз )

    Другие торренты по теме:

  • Алексей Фомин | Доказательства существования ада. Свидетельства переживших смерть (2009) [FB2] скачать через торрент бесплатно
  • [profileschool] Алексей Довгуля | Графический планшет для ретушера (2014) PCRec [H.264 / 1080-LQ] скачать через торрент бесплатно
  • Алексей Олейников | Серия: «Дженни Далфин и Скрытые Земли» [5 книг] (2012-2014) [FB2] скачать через торрент бесплатно
  • [profileschool] Алексей Довгуля | Студийная съемка (2014) PCRec скачать через торрент бесплатно
  • Алексей Брянцев - Спасибо, что ты есть (2014) [FLAC|Lossless]<Шансон>
  • Алексей Даниленков | Интернет-право (2014) [PDF] скачать через торрент бесплатно
  • [Profileschool] Алексей Довгуля | Мастер-класс Смешанный Свет. Практика применения (2013) PCRec
  • [Profileschool] Алексей Довгуля | Adobe Photoshop. Коммерческая ретушь (2014) PCRec


    • Комментарии (0):

      Информация

      Информация

        Посетители, находящиеся в группе Гости, не могут оставлять комментарии в данной новости.

        ↓ Меню




        ↓ Опрос

        Вы добавили сайт в закладки?
        Да
        Нет


        Top 10 за месяц (Книги)

        Марк Мэнсон | Тонкое искусство пофигизма. Парадоксальный способ жить счастливо (2017) [FB2, RTF]

        (скачиваний: 38)
        А.В. Дроган | Разумная психология. НЛП с нуля или игры разума (2006) [FB2, EPUB]

        (скачиваний: 29)
        Лисса Рэнкин | Исцеление от страха (2015) [FB2, EPUB]

        (скачиваний: 26)
        Борис Акимов | Медитация. Самовнушение. Аутотренинг. Самые эффективные психотехники (2014) [FB2, EPUB]

        (скачиваний: 24)
        Павел Секун | Вы будете богаты и счастливы, если сделаете все, что написано в этой книге (2016) [FB2, EPUB]

        (скачиваний: 24)
        Е. Афанасова | Готовим вино, наливки, настойки (2017) [PDF]

        (скачиваний: 23)
        Брайан Кристиан, Том Гриффитс | Алгоритмы для жизни: Простые способы принимать верные решения (2017) [FB2]

        (скачиваний: 23)
        Евгений Старухин | Цикл «Лесовик» [4 книги. Обновляемая] (2015-2017) [FB2]

        (скачиваний: 22)
        Книжная серия | Тайны Третьего Рейха [6 книг] (2000-2011) [FB2, EPUB]

        (скачиваний: 21)
        М. Савченко (ред.) | Настольная энциклопедия электрика от специалистов EKF (2017) [PDF]

        (скачиваний: 21)