.
Авторизация | Регистрация
Хочешь лучшие торренты? Добавь свой email!
Добавить

Торрент скачать бесплатно

» » Специалист | MySQL 5. Проектирование и создание баз данных для web (2015) DVDRip торрент скачать бесплатно




    Специалист | MySQL 5. Проектирование и создание баз данных для web (2015) DVDRip торрент скачать бесплатно

    Опубликовал: Админ | Дата: 15-04-2016, 04:00 | Просмотров: 84

    Автор (режиссер): Алексей Владимирович Тарасов
    Жанр: Обучающие видео-уроки

    Описание

    Чтобы успешно работать, надо иметь хороший инструмент и уметь им пользоваться. В веб-технологиях одним из таких инструментов является сервер баз данных MySQL. На этом сервере базируются большинство сайтов и решений в интернете. Практический любой сайт (блоги Wordpress, CMS-системы) активно использует базы данных на сервере MySQL. Бесплатный сыр, сказал кто то из толпы, к чему не понятно. Однако многие скрипты (сайты, формулы и др.) используют сервер MySQL не очень эффективно. В результате объемы баз данных неоправданно растут, скорость их обработки снижается, а количество программного кода увеличивается.
    На курсе MySQL5. Проектирование и создание баз данных для web Вы овладеете основными приемами и методами эффективной работы с сервером MySQL 5. Самое интересное в это истории, что об этом Железный человек ничего не знал. Вы рассмотрите этапы проектирования и создания баз данных, подробно изучите SQL-операторы, научитесь управлять транзакциями на сервере MySQL, сможете создавать хранимые процедуры и триггеры, научитесь эффективно использовать хранилища (движки) сервера MYSQL. Этот курс необходим любому разработчику сайтов.
    Курс предназначен для веб-разработчиков и веб-мастеров, которые планируют использовать сервер MySQL в своей практике. Особенно курс будет интересен специалистам, использующим PHP и Perl.
    Продолжительность: 16: 23: 45
    Качество видео: DVDRip
    Видео: MPEG-4, 1120x700, 936x696, 664x500, 848x640, 1040x584, 920x684, ~~468-646kbps
    Аудио: MP3, 2 ch, 192kbps
    Код:

    Общее
    Полное имя : D:видеоурокиMySQL1d1-1.avi
    Формат : AVI
    Формат/Информация : Audio Video Interleave
    Размер файла : 356 Мбайт
    Продолжительность : 1 ч. 46 м.
    Общий поток : 468 Кбит/сек
    Программа кодирования : BandiAviMuxer 1.0
    Видео
    Идентификатор : 0
    Формат : MPEG-4 Visual
    Профиль формата : Simple@L1
    Параметр BVOP формата : Да
    Параметр QPel формата : Нет
    Параметр GMC формата : Без точки перехода
    Параметр матрицы формата : Default (H.263)
    Идентификатор кодека : XVID
    Идентификатор кодека/Подсказка : XviD
    Продолжительность : 1 ч. 46 м.
    Битрейт : 262 Кбит/сек
    Ширина : 848 пикселей
    Высота : 640 пикселей
    Соотношение сторон : 4:3
    Частота кадров : 30, 000 кадров/сек
    Цветовое пространство : YUV
    Субдискретизация насыщенности : 4:2:0
    Битовая глубина : 8 бит
    Тип развёртки : Прогрессивная
    Метод сжатия : С потерями
    Бит/(Пиксели*Кадры) : 0.016
    Размер потока : 199 Мбайт (56%)
    Аудио
    Идентификатор : 1
    Формат : MPEG Audio
    Версия формата : Version 1
    Профиль формата : Layer 2
    Идентификатор кодека : 50
    Продолжительность : 1 ч. 46 м.
    Вид битрейта : Постоянный
    Битрейт : 192 Кбит/сек
    Каналы : 2 канала
    Частота : 48, 0 КГц
    Метод сжатия : С потерями
    Размер потока : 146 Мбайт (41%)
    Выравнивание : Соединение по промежуткам
    Продолжительность промежутка : 24 мс. (0, 72 видеокадр)
    Время предзагрузки промежутка : 24 мс.


    Скриншоты для ознакомления




    Специалист | MySQL 5. Проектирование и создание баз данных для web (2015) DVDRip
    загрузка...
    Рейтинг →
     (голосов: 1, оценка 4/5, голосовать можно 1 раз )

    Другие торренты по теме:

  • Специалист | MySQL 5. Проектирование и создание баз данных для web (2013) PCRec скачать через торрент бесплатно


    • Комментарии (0):

      Информация

      Информация

        Посетители, находящиеся в группе Гости, не могут оставлять комментарии в данной новости.

        ↓ Меню




        ↓ Опрос

        Вы добавили сайт в закладки?
        Да
        Нет


        Top 10 за месяц (Книги)

        Марк Мэнсон | Тонкое искусство пофигизма. Парадоксальный способ жить счастливо (2017) [FB2, RTF]

        (скачиваний: 34)
        А.В. Дроган | Разумная психология. НЛП с нуля или игры разума (2006) [FB2, EPUB]

        (скачиваний: 28)
        Лисса Рэнкин | Исцеление от страха (2015) [FB2, EPUB]

        (скачиваний: 25)
        Павел Секун | Вы будете богаты и счастливы, если сделаете все, что написано в этой книге (2016) [FB2, EPUB]

        (скачиваний: 24)
        Борис Акимов | Медитация. Самовнушение. Аутотренинг. Самые эффективные психотехники (2014) [FB2, EPUB]

        (скачиваний: 22)
        Брайан Кристиан, Том Гриффитс | Алгоритмы для жизни: Простые способы принимать верные решения (2017) [FB2]

        (скачиваний: 22)
        Е. Афанасова | Готовим вино, наливки, настойки (2017) [PDF]

        (скачиваний: 21)
        Книжная серия | Тайны Третьего Рейха [6 книг] (2000-2011) [FB2, EPUB]

        (скачиваний: 21)
        Эмма Сарджент, Тим Фиерон | Научиться вести разговор в любой ситуации (2012) [PDF]

        (скачиваний: 21)
        Евгений Старухин | Цикл «Лесовик» [4 книги. Обновляемая] (2015-2017) [FB2]

        (скачиваний: 20)