.
Авторизация | Регистрация
Хочешь лучшие торренты? Добавь свой email!
Добавить

Торрент скачать бесплатно

» » Акинцев & Партнёры | Конференция Трафик (2012) WEBRip торрент скачать бесплатно




    Акинцев & Партнёры | Конференция Трафик (2012) WEBRip торрент скачать бесплатно

    Опубликовал: Админ | Дата: 12-04-2016, 04:02 | Просмотров: 62

    Автор (режиссер): Акинцев Партнёры
    Жанр: Раскрутка проектов , реклама, инфобизнес

    Описание

    Конференция дает полный обзор каналов привлечения клиентов на сайт: социальные сети, e-mail маркетинг, блоги, контекстная реклама, видео анонсы.
    Ставит систему. Вы понимаете, как работает каждый прием, а значит, можете создавать свои комбинации и модификации подходов.
    Только новые и эффективные приемы привлечения клиентов на сайт.
    Только практики - никаких теоретиков. Спикеры: Дамир Халилов, Азамат Ушанов, Сергей Жуковский, Юсуф Губайдулин, Артем Тимофеев, Павел Жуковский, Дмитрий Голополосов, Антон Ельницкий, Вадим Рахаев, Павел Осипенко, Олег Горячо, Эльдар Гузаиров, Евгений Козлов.
    Продолжительность: 08: 35: 09
    Качество видео: WEBRip
    Видео: MPEG-4, 640х360, ~385 kbps, 18 fps
    Аудио: AAC, 2 ch, 64 kbps, VBR
    Код:

    Общее
    Полное имя : Конференция Трафик-2012Conference_Traffic-2012_part_01_Jusuf_Gubaydullin.mp4
    Формат : MPEG-4
    Профиль формата : Base Media
    Идентификатор кодека : isom
    Размер файла : 179 Мбайт
    Продолжительность : 55 м.
    Режим общего битрейта : Переменный
    Общий поток : 451 Кбит/сек
    Исполнитель : Format Factory :www.formatoz.com
    Композитор : Format Factory :www.formatoz.com
    Дата кодирования : UTC 2012-04-28 13:16:34
    Дата пометки : UTC 2012-04-28 13:16:34
    Программа кодирования : Lavf52.23.1
    Видео
    Идентификатор : 1
    Формат : MPEG-4 Visual
    Профиль формата : Simple@L1
    Параметр BVOP формата : Нет
    Параметр QPel формата : Нет
    Параметр GMC формата : Без точки перехода
    Параметр матрицы формата : Default (H.263)
    Идентификатор кодека : 20
    Продолжительность : 55 м.
    Битрейт : 385 Кбит/сек
    Ширина : 640 пикселей
    Высота : 360 пикселей
    Соотношение сторон : 16:9
    Режим частоты кадров : Постоянный
    Частота кадров : 18, 000 кадров/сек
    Цветовое пространство : YUV
    Субдискретизация насыщенности : 4:2:0
    Битовая глубина : 8 бит
    Тип развёртки : Прогрессивная
    Метод сжатия : С потерями
    Бит/(Пиксели*Кадры) : 0.093
    Размер потока : 153 Мбайт (85%)
    Библиотека кодирования : Lavc52.6.0
    Язык : English
    Дата кодирования : UTC 2012-04-28 13:16:34
    Дата пометки : UTC 2012-04-28 13:16:34
    Аудио
    Идентификатор : 2
    Формат : AAC
    Формат/Информация : Advanced Audio Codec
    Профиль формата : LC
    Идентификатор кодека : 40
    Продолжительность : 55 м.
    Вид битрейта : Переменный
    Битрейт : 64, 0 Кбит/сек
    Каналы : 2 канала
    Расположение каналов : Front: L R
    Частота : 22, 05 КГц
    Метод сжатия : С потерями
    Размер потока : 25, 4 Мбайт (14%)
    Язык : English
    Дата кодирования : UTC 2012-04-28 13:16:34
    Дата пометки : UTC 2012-04-28 13:16:34


    Скриншоты для ознакомления




    Акинцев & Партнёры | Конференция Трафик (2012) WEBRip
    загрузка...
    Рейтинг →
     (голосов: 1, оценка 5/5, голосовать можно 1 раз )

    Другие торренты по теме:



      Комментарии (0):

      Информация

      Информация

        Посетители, находящиеся в группе Гости, не могут оставлять комментарии в данной новости.

        ↓ Меню




        ↓ Опрос

        Вы добавили сайт в закладки?
        Да
        Нет


        Top 10 за месяц (Книги)

        Марк Мэнсон | Тонкое искусство пофигизма. Парадоксальный способ жить счастливо (2017) [FB2, RTF]

        (скачиваний: 37)
        А.В. Дроган | Разумная психология. НЛП с нуля или игры разума (2006) [FB2, EPUB]

        (скачиваний: 29)
        Лисса Рэнкин | Исцеление от страха (2015) [FB2, EPUB]

        (скачиваний: 26)
        Павел Секун | Вы будете богаты и счастливы, если сделаете все, что написано в этой книге (2016) [FB2, EPUB]

        (скачиваний: 24)
        Брайан Кристиан, Том Гриффитс | Алгоритмы для жизни: Простые способы принимать верные решения (2017) [FB2]

        (скачиваний: 23)
        Борис Акимов | Медитация. Самовнушение. Аутотренинг. Самые эффективные психотехники (2014) [FB2, EPUB]

        (скачиваний: 23)
        Е. Афанасова | Готовим вино, наливки, настойки (2017) [PDF]

        (скачиваний: 22)
        Книжная серия | Тайны Третьего Рейха [6 книг] (2000-2011) [FB2, EPUB]

        (скачиваний: 21)
        Эмма Сарджент, Тим Фиерон | Научиться вести разговор в любой ситуации (2012) [PDF]

        (скачиваний: 21)
        Евгений Старухин | Цикл «Лесовик» [4 книги. Обновляемая] (2015-2017) [FB2]

        (скачиваний: 20)