.
Авторизация | Регистрация
Хочешь лучшие торренты? Добавь свой email!
Добавить

Торрент скачать бесплатно

» » Виктор Агроскин | Школа системного менеджмента (2015) HDRip [H.264 / 720p] торрент скачать бесплатно




    Виктор Агроскин | Школа системного менеджмента (2015) HDRip [H.264 / 720p] торрент скачать бесплатно

    Опубликовал: Админ | Дата: 12-04-2016, 04:02 | Просмотров: 56

    Автор (режиссер): Виктор Агроскин
    Производство: Школа системного менеджмента
    Жанр: Бизнес

    Описание

    Видео Школы системного менеджмента. В этих видео Виктор Агроскин - партнер Школы, соучредитель ТехИнвестЛаб.ру и член INCOSE, рассказывает о базовых понятиях/принципах системного менеджмента: кто такой стейкхолдер, как появилось понятие стейкхолдера, что такое система, о ролях и вертится как белка в колесе исполнителях в системе, о практике, проектах и процессах, о проектном управление, об управлении процессами и т.д.
    Продолжительность: 01: 00: 09
    Качество видео: HDRip
    Видео: AVC/H.264, 1280x720, ~2 000 Kbps
    Аудио: AAC, 2 ch, 160 Kbps, VBR
    Код:

    General
    Complete name : C:DownloadsINPUTThesaurus System School 2015Thesaurus S01E01 Stakeholder 2015-1027.mp4
    Format : MPEG-4
    Codec ID : M4V
    File size : 270 MiB
    Duration : 17mn 25s
    Overall bit rate mode : Variable
    Overall bit rate : 2 165 Kbps
    Collection : ТЕЗАУРУС Школа системного менеджмента
    Season : 1
    Album : ТЕЗАУРУС part 1
    Album/Sorted by : ТЕЗАУРУС part 1
    Album/Performer : ТЕЗАУРУС
    Part : 1
    Part/Position : 1
    Part/Total : 1
    Track name : Кто такой стейкхолдер
    Track name/Position : 1
    Track name/Total : 4
    Performer : Виктор Агроскин
    Director : Школа системного менеджмента
    Actor : Виктор Агроскин
    Screenplay by : Виктор Агроскин
    Producer : Школа системного менеджмента
    Genre : Family
    ContentType : TV Show
    Description : В этом видео Виктор Агроскин - партнер Школы, соучредитель ТехИнвестЛаб.ру и член INCOSE, расскажет о том, как появилось понятие стейкхолдера, кто такие стейкхолдеры и как они влияют на систему./Присоединяйтесь к нам https://www.facebook.com/system.school.ru/
    Recorded date : UTC 2015-10-27 07:00:00
    Encoded date : UTC 2016-04-05 17:59:13
    Tagged date : UTC 2016-04-06 18:09:49
    Copyright :www.system-school.ru
    Cover : Yes
    Comment : Кто такой стейкхолдер
    Rating : Clean
    ©TIM : 00:00:00:00
    ©TSC : 25
    ©TSZ : 1
    TVNetworkName : Школа системного менеджмента
    Part_ID : 0101
    Title/Sort : ТЕЗАУРУС/ТЕЗАУРУС Школа системного менеджмента
    LongDescription : В этом видео Виктор Агроскин - партнер Школы, соучредитель ТехИнвестЛаб.ру и член INCOSE, расскажет о том, как появилось понятие стейкхолдера, кто такие стейкхолдеры и как они влияют на систему. / /Школа системного менеджмента – это команда экспертов по системному управлению, системной инженерии и IT-технологиям, а также инновационным проектам в области научно-исследовательских и опытно-конструкторских разработок. Для предоставления уникальных образовательных и консультационных продуктов мы объединили авторские разработки и лучшие мировые инженерные и управленческие практики./Цель Школы - сделать системное мышление доступным рабочим инструментом в менеджменте и как колыбельная песня инженерии. / /Присоединяйтесь к нам на Facebook https://www.facebook.com/system.school.ru/
    AppleStoreCountry : Unknown Country
    AppleStoreCatalogID : 1000
    Vendor : Apple:vendor_id:2015-1000-101
    ContentRating : mpaa|NR|000|
    Video #1
    ID : 1
    Format : AVC
    Format/Info : Advanced Video Codec
    Format profile :Main@L3.1
    Format settings, CABAC : No
    Format settings, ReFrames : 2 frames
    Format settings, GOP : M=1, N=75
    Codec ID : avc1
    Codec ID/Info : Advanced Video Coding
    Duration : 17mn 25s
    Bit rate : 2 000 Kbps
    Width : 1 280 pixels
    Height : 720 pixels
    Display aspect ratio : 16:9
    Frame rate mode : Constant
    Frame rate : 25.000 fps
    Standard : PAL
    Color space : YUV
    Chroma subsampling : 4:2:0
    Bit depth : 8 bits
    Scan type : Progressive
    Bits/(Pixel*Frame) : 0.087
    Stream size : 249 MiB (92%)
    Language : Russian
    Encoded date : UTC 2016-04-05 17:59:13
    Tagged date : UTC 2016-04-05 17:59:13
    Color range : Limited
    Color primaries : BT.709
    Transfer characteristics : BT.709
    Matrix coefficients : BT.709
    Video #2
    ID : 4
    Format : JPEG
    Codec ID : jpeg
    Duration : 17mn 25s
    Duration_LastFrame : -34s 680ms
    Bit rate mode : Variable
    Bit rate : 3 675 bps
    Width : 640 pixels
    Height : 360 pixels
    Display aspect ratio : 16:9
    Frame rate mode : Constant
    Frame rate : 0.008 fps
    Color space : YUV
    Chroma subsampling : 4:2:0
    Bit depth : 8 bits
    Compression mode : Lossy
    Bits/(Pixel*Frame) : 1.994
    Stream size : 505 KiB (0%)
    Language : English
    Encoded date : UTC 2016-04-06 17:36:09
    Tagged date : UTC 2016-04-06 17:36:09
    Audio
    ID : 2
    Format : AAC
    Format/Info : Advanced Audio Codec
    Format profile : LC
    Codec ID : 40
    Duration : 17mn 25s
    Source duration : 17mn 25s
    Bit rate mode : Variable
    Bit rate : 157 Kbps
    Maximum bit rate : 159 Kbps
    Channel(s) : 2 channels
    Channel positions : Front: L R
    Sampling rate : 48.0 KHz
    Compression mode : Lossy
    Stream size : 19.6 MiB (7%)
    Source stream size : 19.6 MiB (7%)
    Language : Russian
    Encoded date : UTC 2016-04-05 17:59:13
    Tagged date : UTC 2016-04-05 17:59:13
    Menu
    ID : 3
    Codec ID : text
    Duration : 17mn 25s
    Language : English
    Encoded date : UTC 2016-04-06 17:36:07
    Tagged date : UTC 2016-04-06 17:36:07
    Bit rate mode : CBR
    Duration_LastFrame : -34680
    00:00:00.000 : Chapter 1
    00:02:00.000 : Chapter 2
    00:04:00.000 : Chapter 3
    00:06:00.000 : Chapter 4
    00:08:00.000 : Chapter 5
    00:10:00.000 : Chapter 6
    00:12:00.000 : Chapter 7
    00:14:00.000 : Chapter 8
    00:16:00.000 : Chapter 9


    Скриншоты для ознакомления




    Виктор Агроскин | Школа системного менеджмента (2015) HDRip [H.264/720p]
    загрузка...
    Рейтинг →
     (голосов: 1, оценка 4/5, голосовать можно 1 раз )

    Другие торренты по теме:

  • Виктор Кожемяко | Виктор Розов. Свидетель века (2013) [FB2] скачать через торрент бесплатно
  • Виктор Марковский, Виктор Мильяченко | Афганистан. Война разведчиков (2001) [FB2]
  • Виктор Кожемяко | Виктор Розов. Свидетель века (2016) [MP3]
  • Виктор / Viktor (2014) TS
  • Виктор (Viktor) (2014) [MP4 | 720x320] <TS H.264>
  • Виктор / Viktor (2014) WEB-DLRip скачать через торрент бесплатно
  • Виктор Глумов | Сталкеры поневоле [3 книги] (2014) [FB2] скачать через торрент бесплатно
  • Виктор / Viktor (2014) WEB-DLRip [H.264 / 720p-LQ]


    • Комментарии (0):

      Информация

      Информация

        Посетители, находящиеся в группе Гости, не могут оставлять комментарии в данной новости.

        ↓ Меню




        ↓ Опрос

        Вы добавили сайт в закладки?
        Да
        Нет


        Top 10 за месяц (Книги)

        Марк Мэнсон | Тонкое искусство пофигизма. Парадоксальный способ жить счастливо (2017) [FB2, RTF]

        (скачиваний: 38)
        А.В. Дроган | Разумная психология. НЛП с нуля или игры разума (2006) [FB2, EPUB]

        (скачиваний: 29)
        Лисса Рэнкин | Исцеление от страха (2015) [FB2, EPUB]

        (скачиваний: 26)
        Борис Акимов | Медитация. Самовнушение. Аутотренинг. Самые эффективные психотехники (2014) [FB2, EPUB]

        (скачиваний: 24)
        Павел Секун | Вы будете богаты и счастливы, если сделаете все, что написано в этой книге (2016) [FB2, EPUB]

        (скачиваний: 24)
        Брайан Кристиан, Том Гриффитс | Алгоритмы для жизни: Простые способы принимать верные решения (2017) [FB2]

        (скачиваний: 23)
        Е. Афанасова | Готовим вино, наливки, настойки (2017) [PDF]

        (скачиваний: 23)
        Евгений Старухин | Цикл «Лесовик» [4 книги. Обновляемая] (2015-2017) [FB2]

        (скачиваний: 22)
        Книжная серия | Тайны Третьего Рейха [6 книг] (2000-2011) [FB2, EPUB]

        (скачиваний: 21)
        Эмма Сарджент, Тим Фиерон | Научиться вести разговор в любой ситуации (2012) [PDF]

        (скачиваний: 21)