.
Авторизация | Регистрация
Хочешь лучшие торренты? Добавь свой email!
Добавить

Торрент скачать бесплатно

» » Алекс Мэй | Формула струйных оргазмов 2.0 (2015) HDRip [H.264 / 1080p] торрент скачать бесплатно




    Алекс Мэй | Формула струйных оргазмов 2.0 (2015) HDRip [H.264 / 1080p] торрент скачать бесплатно

    Опубликовал: Админ | Дата: 28-03-2016, 04:00 | Просмотров: 382

    Автор (режиссер): Алекс Мэй
    Жанр: Сексология

    Описание

    Формула струйных оргазмов 2.0 — это вторая версия эксклюзивной программы, состоящая из 3 ступеней обучения, аналогов которой нет ни на российском, ни на европейском рынке.
    Чтобы освоить эту программу, вам не нужно быть многоопытным любовником, а ваша женщина не должна быть суперзвездой в постели. Программа специально разработана так, чтобы привести к успеху любую, даже самую неискушенную пару.
    Вы получите исключительно проверенные, на 100% рабочие техники, а также живую демонстрацию и наглядное изложение материала без заумных терминов, сложной теории и необходимости тратить свое время на пробы и ошибки.
    Продолжительность: 05: 22: 14
    Качество видео: HDRip
    Видео: AVC/H.264, 1920х1080, ~5664 Kbps
    Аудио: AAC, 2 ch, 317 Kbps, VBR
    Код:

    General
    Complete name : C:TorrentsАлекс Мэй - Формула струйных оргазмов 2.0 (2015) HDsquirting2-disk1.mp4
    Format : MPEG-4
    Format profile : Base Media/Version 2
    Codec ID : mp42
    File size : 4.18 GiB
    Duration : 1h 39mn
    Overall bit rate mode : Variable
    Overall bit rate : 5 986 Kbps
    Encoded date : UTC 2015-04-04 15:58:18
    Tagged date : UTC 2015-04-04 16:00:22
    ©TIM : 00:00:00:00
    ©TSC : 25
    ©TSZ : 1
    Video
    ID : 1
    Format : AVC
    Format/Info : Advanced Video Codec
    Format profile :High@L4.1
    Format settings, CABAC : Yes
    Format settings, ReFrames : 3 frames
    Codec ID : avc1
    Codec ID/Info : Advanced Video Coding
    Duration : 1h 39mn
    Bit rate mode : Variable
    Bit rate : 5 664 Kbps
    Maximum bit rate : 6 000 Kbps
    Width : 1 920 pixels
    Height : 1 080 pixels
    Display aspect ratio : 16:9
    Frame rate mode : Constant
    Frame rate : 25.000 fps
    Standard : PAL
    Color space : YUV
    Chroma subsampling : 4:2:0
    Bit depth : 8 bits
    Scan type : Interlaced
    Scan order : Top Field First
    Bits/(Pixel*Frame) : 0.109
    Stream size : 3.95 GiB (95%)
    Language : English
    Encoded date : UTC 2015-04-04 15:58:18
    Tagged date : UTC 2015-04-04 15:58:18
    Color primaries : BT.709
    Transfer characteristics : BT.709
    Matrix coefficients : BT.709
    Audio
    ID : 2
    Format : AAC
    Format/Info : Advanced Audio Codec
    Format profile : LC
    Codec ID : 40
    Duration : 1h 39mn
    Source duration : 1h 39mn
    Bit rate mode : Variable
    Bit rate : 317 Kbps
    Maximum bit rate : 405 Kbps
    Channel(s) : 2 channels
    Channel positions : Front: L R
    Sampling rate : 48.0 KHz
    Compression mode : Lossy
    Stream size : 227 MiB (5%)
    Source stream size : 227 MiB (5%)
    Language : English
    Encoded date : UTC 2015-04-04 15:58:18
    Tagged date : UTC 2015-04-04 15:58:18


    Скриншоты для ознакомления




    Алекс Мэй | Формула струйных оргазмов 2.0 (2015) HDRip [H.264/1080p]
    загрузка...
    Рейтинг →
     (голосов: 1, оценка 3/5, голосовать можно 1 раз )

    Другие торренты по теме:

  • Алекс Мэй | Формула струйных оргазмов (2014) HDRip [H.264 / 720p]


    • Комментарии (0):

      Информация

      Информация

        Посетители, находящиеся в группе Гости, не могут оставлять комментарии в данной новости.

        ↓ Меню




        ↓ Опрос

        Вы добавили сайт в закладки?
        Да
        Нет


        Top 10 за месяц (Книги)

        Марк Мэнсон | Тонкое искусство пофигизма. Парадоксальный способ жить счастливо (2017) [FB2, RTF]

        (скачиваний: 38)
        А.В. Дроган | Разумная психология. НЛП с нуля или игры разума (2006) [FB2, EPUB]

        (скачиваний: 29)
        Лисса Рэнкин | Исцеление от страха (2015) [FB2, EPUB]

        (скачиваний: 26)
        Павел Секун | Вы будете богаты и счастливы, если сделаете все, что написано в этой книге (2016) [FB2, EPUB]

        (скачиваний: 24)
        Брайан Кристиан, Том Гриффитс | Алгоритмы для жизни: Простые способы принимать верные решения (2017) [FB2]

        (скачиваний: 23)
        Борис Акимов | Медитация. Самовнушение. Аутотренинг. Самые эффективные психотехники (2014) [FB2, EPUB]

        (скачиваний: 23)
        Е. Афанасова | Готовим вино, наливки, настойки (2017) [PDF]

        (скачиваний: 22)
        Эмма Сарджент, Тим Фиерон | Научиться вести разговор в любой ситуации (2012) [PDF]

        (скачиваний: 21)
        Книжная серия | Тайны Третьего Рейха [6 книг] (2000-2011) [FB2, EPUB]

        (скачиваний: 21)
        Геннадий Кибардин | Су-Джок лечит: мигрень, кашель, боль в спине, тяжесть в желудке (2016) [FB2, EPUB]

        (скачиваний: 20)