.
Авторизация | Регистрация
Хочешь лучшие торренты? Добавь свой email!
Добавить

Торрент скачать бесплатно

» » Сергей Змеев, Дмитрий Красавин | Биржевой инвестор (2011) CamRip [H.264] торрент скачать бесплатно




    Сергей Змеев, Дмитрий Красавин | Биржевой инвестор (2011) CamRip [H.264] торрент скачать бесплатно

    Опубликовал: Админ | Дата: 18-03-2016, 04:01 | Просмотров: 99

    Автор (режиссер): Сергей Змеев, Дмитрий Красавин
    Жанр: Трейдинг

    Описание

    Видеокурс Биржевой инвестор Хозяин судьбы - автор Дмитрий Красавин предлагает всем интернет предпринимателям не боящимся риска, но желающим уметь управлять им, присоединится к по настоящем успешным инвесторам, которые по сути правят балом. Расширенная обучающая программа, состоящая из четырех вебинаров и такого же количества обучающего видео, плюс к этому - онлайн ответы на возникающие вопросы, помогут даже аскетически настроенному и неверующему в легкие заработки человеку удостовериться в правдивости приводимой информации.
    Вам предстоит узнать о самых важных и поэтому секретных моментах инвестиционных компаний, о том как посвященные брокеры без рисков для себя извлекают прибыль из бирж. Вы научитесь правильно распределять неминуемые риски для получения стабильно возрастающего дохода, вы сможете управлять сделками, строить прогнозы, автоматизировать рутинные процессы и многое другое.
    Внимательно просмотрев все предложенные материалы, можно однозначно сделать вывод, что видеокурс Биржевой инвестор Хозяин судьбы, говорит сам за себя следуя из своего названия, придуманного ухищренным умом автора. Желаете быстрых и крупных заработков? - можно сказать с достоверностью только одно, вы получите максимум адреналина, стоит только попробовать, не остановитесь!
    Продолжительность: 12: 01: 29
    Качество видео: CamRip
    Видео: AVC/H.264, 640x472, ~600 Kbps
    Аудио: AAC, 2 ch, 111 Kbps, VBR
    Код:

    General
    Complete name : C:TorrentsЗмеев Сергей, Дмитрий Красавин - Биржевой инвестор (2011)1. Урок 1Часть 1.mp4
    Format : MPEG-4
    Format profile : Base Media
    Codec ID : isom
    File size : 334 MiB
    Duration : 1h 5mn
    Overall bit rate mode : Variable
    Overall bit rate : 715 Kbps
    Encoded date : UTC 2011-10-10 12:08:16
    Tagged date : UTC 2011-10-11 12:08:27
    Video
    ID : 1
    Format : AVC
    Format/Info : Advanced Video Codec
    Format profile :High@L3.1
    Format settings, CABAC : Yes
    Format settings, ReFrames : 4 frames
    Codec ID : avc1
    Codec ID/Info : Advanced Video Coding
    Duration : 1h 5mn
    Bit rate : 600 Kbps
    Maximum bit rate : 1 414 Kbps
    Width : 640 pixels
    Height : 472 pixels
    Display aspect ratio : 4:3
    Frame rate mode : Constant
    Frame rate : 30.000 fps
    Color space : YUV
    Chroma subsampling : 4:2:0
    Bit depth : 8 bits
    Scan type : Progressive
    Bits/(Pixel*Frame) : 0.066
    Stream size : 280 MiB (84%)
    Writing library : Vimeo Encoder
    Encoded date : UTC 2011-10-10 12:08:16
    Tagged date : UTC 2011-10-10 12:08:23
    Audio
    ID : 2
    Format : AAC
    Format/Info : Advanced Audio Codec
    Format profile : LC
    Codec ID : 40
    Duration : 1h 5mn
    Bit rate mode : Variable
    Bit rate : 111 Kbps
    Maximum bit rate : 229 Kbps
    Channel(s) : 2 channels
    Channel positions : Front: L R
    Sampling rate : 44.1 KHz
    Compression mode : Lossy
    Stream size : 51.7 MiB (16%)
    Encoded date : UTC 2011-10-10 12:08:21
    Tagged date : UTC 2011-10-10 12:08:23


    Скриншоты для ознакомления




    Сергей Змеев, Дмитрий Красавин | Биржевой инвестор (2011) CamRip [H.264]
    загрузка...
    Рейтинг →
     (голосов: 1, оценка 5/5, голосовать можно 1 раз )

    Другие торренты по теме:

  • Сергей Змеев | Хозяин Судьбы 3.0 (2011) CamRip [H.264]
  • Сергей Змеев | Интуиция (2012) DVDRip [H.264]
  • Сергей Змеев | Хозяин Судьбы 20.12 (2012) DVDRip [H.264]
  • Сергей Змеев | Большая Бизнес Игра (2013) DVDRip [H.264]
  • Сергей Змеев | Тайная Власть Денег (Сборник, 5 шт.) (2011-2013) DVDRip [H.264]
  • Сергей Змеев, Вера Семёнова | Риэлтор-Миллионер (2013) HDRip [H.264 / 720p]
  • Сергей Змеев | Магия архетипов (2012) DVDRip [H.264]
  • Сергей Змеев | Энергия Денег (2011) DVDRip [H.264]


    • Комментарии (0):

      Информация

      Информация

        Посетители, находящиеся в группе Гости, не могут оставлять комментарии в данной новости.

        ↓ Меню




        ↓ Опрос

        Вы добавили сайт в закладки?
        Да
        Нет


        Top 10 за месяц (Книги)

        Джиллиан Майклз | Знаменитая программа Джиллиан Майклз: Стройное и здоровое тело за 30 дней (2016) [FB2]

        (скачиваний: 53)
        И.Б. Фефилова | Антивозрастная медицина. Современная энциклопедия (2015) [PDF, EPUB]

        (скачиваний: 31)
        Михаил Диденко | Русский стиль выживания. Как остаться в живых одному в лесу (2017) [PDF, FB2]

        (скачиваний: 26)
        Михаил Лабковский | Хочу и буду: Принять себя, полюбить жизнь и стать счастливым (2017) [FB2, EPUB]

        (скачиваний: 24)
        Александр Клинге | Ленин. Самая правдивая биография Ильича (2017) [FB2, EPUB]

        (скачиваний: 23)
        Давид Дубницкий | Жанровый НЮ-портрет (2016) PCRec

        (скачиваний: 20)
        Дэвид Агус | Завтра начинается сегодня. Как воспользоваться достижениями anti-age медицины (2017) [FB2, EPUB]

        (скачиваний: 20)
        Евгений Старухин | Цикл «Лесовик» [4 книги. Обновляемая] (2015-2017) [FB2]

        (скачиваний: 20)
        Джон Дуглас, Марк Олшейкер | Психологический портрет убийцы. Методики ФБР (2016) [FB2, EPUB]

        (скачиваний: 19)
        Лидия Резник | 25 любимых специй (2017) [FB2]

        (скачиваний: 19)