.
Авторизация | Регистрация
Хочешь лучшие торренты? Добавь свой email!
Добавить

Торрент скачать бесплатно

» » Profileschool | История искусства – современному фотографу (2015) PCRec торрент скачать бесплатно




    Profileschool | История искусства – современному фотографу (2015) PCRec торрент скачать бесплатно

    Опубликовал: Админ | Дата: 29-02-2016, 16:43 | Просмотров: 233

    Автор (режиссер): Алексей Шадрин/Profileschool
    Жанр: Фото

    Описание

    ОПИСАНИЕ КУРСА
    Учебный проект История искусства – современному фотографу основан на системном подходе и направлен на формирование у современного фотографа художественной базы. Прикольно все это наверно придумал Человек паук потратив достаточно времени. Курс подкреплен творческими домашними заданиями, нацеленными на практическое закрепление пройденного материала.
    Изучив и поняв обстоятельства зарождения и тенденции развития европейского изобразительного искусства от готики до наших дней, учащийся обстоятельно укрепит свой художественный базис, расширит кругозор, и найдет продуктивный способ осмысленного приобретения сугубо практических навыков. Культурная база, формируемая курсом, нацелена именно на решение практических вопросов, в частности: как сформулировать художественную задачу, соотнеся ее с задачами, уже поставленными и решенными искусством в прошлые века; как отыскать в этой задаче факторы новизны, оригинальности и аутентичности, то есть те признаки будущего произведения, что способны заинтересовать потенциального зрителя и побудить его к приобретению фоторабот, и многое другое.
    В отличие от тематических семинаров, посвященных ключевым фигурам европейского искусства, повлиявших или продолжающих оказывать влияние на внутренний текст современных изображений, данный онлайн-курс не акцентирует внимания на расшифровке творческого метода конкретных художников, но направлен на осмысление тенденций искусства в разные периоды его развития и механизмов влияния этих тенденций на современную фотографию и кинематограф. Курс предусматривает два вида домашних заданий – проверочные и творческие, направленные на материализацию полученных навыков. По окончании онлайн-курса учащиеся, успешно сдавшие тестовые задания, получают сертификат.
    Продолжительность: 35: 54: 00
    Качество видео: PCRec
    Видео: WMV1, 1440x868, ~600 Kbps
    Аудио: AAC, 2 ch, 96 Kbps
    Код:

    General
    Complete name : C:UsersBoryaDownloadsАлексей Шадрин. История искусства современному фотографу1иисф-1-2.wmv
    Format : Windows Media
    File size : 279 MiB
    Duration : 1h 14mn
    Overall bit rate mode : Variable
    Overall bit rate : 522 Kbps
    Maximum Overall bit rate : 743 Kbps
    Encoded date : UTC 2015-12-06 07:17:41.430
    FSCSettings : 14
    Video
    ID : 2
    Format : WMV1
    Codec ID : WMV1
    Codec ID/Info : Windows Media Video 7
    Description of the codec : Windows Media Video V7
    Duration : 1h 14mn
    Bit rate mode : Variable
    Bit rate : 418 Kbps
    Width : 1 440 pixels
    Height : 880 pixels
    Display aspect ratio : 16:10
    Frame rate : 25.000 fps
    Bit depth : 8 bits
    Bits/(Pixel*Frame) : 0.013
    Stream size : 223 MiB (80%)
    Language : English (US)
    Audio
    ID : 1
    Format : WMA
    Format version : Version 2
    Codec ID : 161
    Codec ID/Info : Windows Media Audio
    Description of the codec : Windows Media Audio 9.2 - 96 kbps, 44 kHz, stereo 1-pass CBR
    Duration : 1h 14mn
    Bit rate mode : Constant
    Bit rate : 96.0 Kbps
    Channel(s) : 2 channels
    Sampling rate : 44.1 KHz
    Bit depth : 16 bits
    Stream size : 51.3 MiB (18%)
    Language : English (US)


    Скриншоты для ознакомления




    Profileschool | История искусства – современному фотографу (2015) PCRec
    загрузка...
    Рейтинг →
     (голосов: 1, оценка 5/5, голосовать можно 1 раз )

    Другие торренты по теме:

  • [Profileschool] Андрей Журавлев | МК Paths - пути в Adobe Photoshop (2014) PCRec [H.264 / 720p-LQ]
  • [Profileschool] Алена Полосухина и Александр Чалдрян | МК Предметная съемка 2.0 (2014) PCRec
  • [profileschool] Алексей Довгуля | Графический планшет для ретушера (2014) PCRec [H.264 / 1080-LQ] скачать через торрент бесплатно
  • [profileschool] Алексей Довгуля | Студийная съемка (2014) PCRec скачать через торрент бесплатно
  • [Profileschool] Дмитрий Ларионов | Adobe Premiere Pro. Базовый уровень (2014) PCRec [H.264] скачать через торрент бесплатно
  • [Profileschool] Александр Чалдрян | Авторская обработка. Как это сделано (2014) PCRec
  • [Profileschool] Алексей Довгуля | Мастер-класс Смешанный Свет. Практика применения (2013) PCRec
  • [Profileschool] Алексей Довгуля | Adobe Photoshop. Коммерческая ретушь (2014) PCRec


    • Комментарии (0):

      Информация

      Информация

        Посетители, находящиеся в группе Гости, не могут оставлять комментарии в данной новости.

        ↓ Меню




        ↓ Опрос

        Вы добавили сайт в закладки?
        Да
        Нет


        Top 10 за месяц (Книги)

        Джиллиан Майклз | Знаменитая программа Джиллиан Майклз: Стройное и здоровое тело за 30 дней (2016) [FB2]

        (скачиваний: 54)
        И.Б. Фефилова | Антивозрастная медицина. Современная энциклопедия (2015) [PDF, EPUB]

        (скачиваний: 31)
        Михаил Диденко | Русский стиль выживания. Как остаться в живых одному в лесу (2017) [PDF, FB2]

        (скачиваний: 26)
        Михаил Лабковский | Хочу и буду: Принять себя, полюбить жизнь и стать счастливым (2017) [FB2, EPUB]

        (скачиваний: 24)
        Александр Клинге | Ленин. Самая правдивая биография Ильича (2017) [FB2, EPUB]

        (скачиваний: 23)
        Давид Дубницкий | Жанровый НЮ-портрет (2016) PCRec

        (скачиваний: 20)
        Дэвид Агус | Завтра начинается сегодня. Как воспользоваться достижениями anti-age медицины (2017) [FB2, EPUB]

        (скачиваний: 20)
        Евгений Старухин | Цикл «Лесовик» [4 книги. Обновляемая] (2015-2017) [FB2]

        (скачиваний: 20)
        Лидия Резник | 25 любимых специй (2017) [FB2]

        (скачиваний: 19)
        Джон Дуглас, Марк Олшейкер | Психологический портрет убийцы. Методики ФБР (2016) [FB2, EPUB]

        (скачиваний: 19)