.
Авторизация | Регистрация
Хочешь лучшие торренты? Добавь свой email!
Добавить

Торрент скачать бесплатно

» » lynda.com | CINEMA 4D R17 Essential Training (2016) PCRec [H.264 / 720p] [EN] торрент скачать бесплатно




    lynda.com | CINEMA 4D R17 Essential Training (2016) PCRec [H.264 / 720p] [EN] торрент скачать бесплатно

    Опубликовал: Админ | Дата: 25-02-2016, 04:02 | Просмотров: 411

    Автор (режиссер): lynda.com
    Производство: lynda.com
    Жанр: CINEMA 4D, Обучающее видео

    Описание

    Курс CINEMA 4D R17 Essential Training с автором Craig Whitaker представляет художникам процесс работы с CINEMA 4D, используя CINEMA 4D как важный набор инструментов наряду с Adobe After Effects, Photoshop и Illustrator. В этом курсе мы рассмотрим основы работы с Cinema 4D . Время пошло, сказал кто то из толпы, к чему не понятно. Мы рассмотрим все от моделирования до освещения , от динамики до материалов . Мы исследуем деформаторы и анимацию, и закончим обзором рендеринга и завершением наших проектов в After Effects. Он также включает техники создания, выбора и трансформирования объектов, работу со сплайнами, полигональное моделирование и добавление материалов, освещения и обзора камеры для полной реализации 3D изображения.
    Файлы упражнений прилагаются к курсу.
    Продолжительность: 06: 24: 10
    Качество видео: PCRec
    Язык: Английский
    Видео: AVC/H.264, 1280x720 (16: 9), ~430 Kbps
    Аудио: AAC, 2 ch, 160 Kbps, CBR
    Код:

    Общее
    Полное имя : E:TUTTORIALSCINEMA 4DLynda – CINEMA 4D R17 Essential Training02 What you should know before watching this course.mp4
    Формат : MPEG-4
    Профиль формата : Base Media/Version 2
    Идентификатор кодека : mp42 (mp42/isom)
    Размер файла : 2, 15 Мбайт
    Продолжительность : 30 с.
    Режим общего битрейта : Переменный
    Общий поток : 589 Кбит/сек
    Дата кодирования : UTC 2016-02-08 08:57:27
    Дата пометки : UTC 2016-02-08 08:57:27
    IsTruncated : Yes
    Видео
    Идентификатор : 1
    Формат : AVC
    Формат/Информация : Advanced Video Codec
    Профиль формата :Main@L3.1
    Параметр CABAC формата : Да
    Параметр ReFrames формата : 5 кадров
    Идентификатор кодека : avc1
    Идентификатор кодека/Информация : Advanced Video Coding
    Продолжительность : 30 с.
    Вид битрейта : Переменный
    Битрейт : 422 Кбит/сек
    Максимальный битрейт : 1000 Кбит/сек
    Ширина : 1280 пикселей
    Высота : 720 пикселей
    Соотношение сторон : 16:9
    Режим частоты кадров : Постоянный
    Частота кадров : 15, 000 кадров/сек
    Цветовое пространство : YUV
    Субдискретизация насыщенности : 4:2:0
    Битовая глубина : 8 бит
    Тип развёртки : Прогрессивная
    Бит/(Пиксели*Кадры) : 0.031
    Размер потока : 1, 54 Мбайт (72%)
    Заголовок : Telestream Inc. Dib Library - ReleaseVantage 2014.59.138974
    Библиотека кодирования : x264 core 129
    Настройки программы : cabac=1/ref=5/deblock=1:0:0/analyse=0x1:0x111/me=hex/subme=7/psy=1/psy_rd=1.00:0.00/mixed_ref=1/me_range=16/chroma_me=1/trellis=1/8x8dct=0/cqm=0/deadzone=21, 11/fast_pskip=1/chroma_qp_offset=-2/threads=14/lookahead_threads=2/sliced_threads=0/nr=0/decimate=1/interlaced=0/bluray_compat=0/constrained_intra=0/bframes=1/b_pyramid=0/b_adapt=1/b_bias=0/direct=1/weightb=1/open_gop=0/weightp=2/keyint=150/keyint_min=15/scenecut=40/intra_refresh=0/rc_lookahead=40/rc=crf/mbtree=1/crf=22.0/qcomp=0.60/qpmin=0/qpmax=69/qpstep=4/vbv_maxrate=1000/vbv_bufsize=6400/crf_max=0.0/nal_hrd=vbr/ip_ratio=3.00/aq=1:1.00
    Язык : English
    Дата кодирования : UTC 2016-02-08 08:57:27
    Дата пометки : UTC 2016-02-08 08:57:27
    Аудио
    Идентификатор : 2
    Формат : AAC
    Формат/Информация : Advanced Audio Codec
    Профиль формата : LC
    Идентификатор кодека : 40
    Продолжительность : 30 с.
    Вид битрейта : Постоянный
    Битрейт : 160 Кбит/сек
    Номинальный битрейт : 128 Кбит/сек
    Каналы : 2 канала
    Расположение каналов : Front: L R
    Частота : 48, 0 КГц
    Частота кадров : 46, 875 кадров/сек (1024 spf)
    Метод сжатия : С потерями
    Размер потока : 597 Кбайт (27%)
    Заголовок : Telestream Inc. Dib Library - ReleaseVantage 2014.59.138974
    Язык : English
    Дата кодирования : UTC 2016-02-08 08:57:27
    Дата пометки : UTC 2016-02-08 08:57:27


    Скриншоты для ознакомления




    lynda.com | CINEMA 4D R17 Essential Training (2016) PCRec [H.264/720p] [EN]
    загрузка...
    Рейтинг →
     (голосов: 1, оценка 5/5, голосовать можно 1 раз )

    Другие торренты по теме:

  • lynda.com | Foundations of Photography: Composition / Основы фотографии: Композиция (2011) [Ru] PCRec скачать через торрент бесплатно
  • Lynda.com | Git обучение основам / Git Essential Training (2012) [EN / RU Sub] PCRec скачать через торрент бесплатно
  • Lynda.com | Photoshop CC One-on-One: Продвинутый (2014) PCRec скачать через торрент бесплатно
  • Lynda.com | Основы Веб Технологий / Web Technology Fundamentals†(2013) PCRec скачать через торрент бесплатно
  • Lynda | 3ds Max 2015 Базовый тренинг / 3ds Max 2015 Essential Training (2014) PCRec [H.264 / 720p] скачать через торрент бесплатно
  • Lynda.com | Успешный проект за 12 шагов! (2014) PCRec [H.264 / 720p]
  • Lynda.com | Сборник уроков по веб-разработке (2013-2014) [ISO]
  • Lynda.com | Основные принципы дизайна логотипа (2013) PCRec [H.264 / 720p]


    • Комментарии (0):

      Информация

      Информация

        Посетители, находящиеся в группе Гости, не могут оставлять комментарии в данной новости.

        ↓ Меню




        ↓ Опрос

        Вы добавили сайт в закладки?
        Да
        Нет


        Top 10 за месяц (Книги)

        Марк Мэнсон | Тонкое искусство пофигизма. Парадоксальный способ жить счастливо (2017) [FB2, RTF]

        (скачиваний: 33)
        А.В. Дроган | Разумная психология. НЛП с нуля или игры разума (2006) [FB2, EPUB]

        (скачиваний: 26)
        Лисса Рэнкин | Исцеление от страха (2015) [FB2, EPUB]

        (скачиваний: 25)
        Павел Секун | Вы будете богаты и счастливы, если сделаете все, что написано в этой книге (2016) [FB2, EPUB]

        (скачиваний: 23)
        Борис Акимов | Медитация. Самовнушение. Аутотренинг. Самые эффективные психотехники (2014) [FB2, EPUB]

        (скачиваний: 21)
        Книжная серия | Тайны Третьего Рейха [6 книг] (2000-2011) [FB2, EPUB]

        (скачиваний: 21)
        Геннадий Кибардин | Су-Джок лечит: мигрень, кашель, боль в спине, тяжесть в желудке (2016) [FB2, EPUB]

        (скачиваний: 20)
        Брайан Кристиан, Том Гриффитс | Алгоритмы для жизни: Простые способы принимать верные решения (2017) [FB2]

        (скачиваний: 20)
        Е. Афанасова | Готовим вино, наливки, настойки (2017) [PDF]

        (скачиваний: 20)
        Эмма Сарджент, Тим Фиерон | Научиться вести разговор в любой ситуации (2012) [PDF]

        (скачиваний: 19)