.
Авторизация | Регистрация
Хочешь лучшие торренты? Добавь свой email!
Добавить

Торрент скачать бесплатно

» » InfiniteSkills | Профессиональное руководство по взлому и проникновению в беспроводную сеть WiFi (2015) PCRec [H.264 / 1080p] торрент скачать бесплатно




    InfiniteSkills | Профессиональное руководство по взлому и проникновению в беспроводную сеть WiFi (2015) PCRec [H.264 / 1080p] торрент скачать бесплатно

    Опубликовал: Админ | Дата: 23-02-2016, 04:01 | Просмотров: 329

    Автор (режиссер): InfiniteSkills
    Жанр: Обучающий видеокурс

    Описание

    Устраняем неполадки сети с помощью Wireshark
    Захватываем и анализируем сетевой трафик

    В этом курсе озвучивается:
    - 802.11: Основы, Частоты, Точки доступа, Ad-Hoc, ABGN, SSID, ESSID и BSSID, Beaconing And Broadcasting, Enterprise Networks, Wi-Fi для Windows, Wi-Fi в ОС Mac OS, Wi-Fi в Linux
    - Обеспечение безопасности беспроводной сети: Аутентификация, 802.1X, Радиус, Шифрование, WEP, WPA, WPA2, WPS, EAP, Скрытая сеть, Фильтрация, Сегментация сети, Конфигурации по умолчанию
    - Инструменты беспроводной Атаки : Встроенные инструменты, Кали Linux, Kismet, Aircrack-НG, WiFi Explorer, Wireshark, Wireless Attack Toolkit, NetStumbler, Ettercap, Dsniff, Airpwn, Aireplay-NG, Fern, WiFi Tap, Cowpatty, WiFi-Honey
    - Атаки на беспроводные сети: Использование Wireshark, Захват сетевых пакетов, Режим монитора, Investigating Packets, Фильтрация, Radio Traffic, War Driving, Frame Injection, RADIUS Replay, SSL Stripping, Де-аутентификация, Airodump, фальшивая аутентификация
    - Атаки на точку доступа: Replay Атака, Взлом WEP, Взлом WPA, Rogue Access Points, Атака человек посередине, Изменения MAC-адреса
    - Bluetooth: Обзор Bluetooth, аутентификации Bluetooth, профили Bluetooth, Bluesnarfer, Blueranger, BT сканер
    - Другое беспроводые сети: WiMax, Near Field Communication, ZigBee, RFID

    Оригинальное название:
    Professional Guide to Wireless Network Hacking and Penetration Testing
    Продолжительность: 04: 52: 08
    Качество видео: PCRec
    Язык: Английский
    Перевод: Субтитры
    Переводчик: Klimdy
    Видео: MPEG4 Video, 1920x1080, ~907kbps
    Аудио: AAC, 2 ch, 125kbps
    Код:

    General
    Complete name : D:ТоррентыВидео со встроенными субтитрами1. Introduction101 Introduction And About The Author.mp4
    Format : MPEG-4
    Format profile : Base Media
    Codec ID : isom
    File size : 11.6 MiB
    Duration : 1mn 33s
    Overall bit rate mode : Variable
    Overall bit rate : 1 036 Kbps
    Encoded date : UTC 2015-03-02 19:23:12
    Tagged date : UTC 2015-03-02 19:23:12
    Writing application : Lavf55.33.100
    Video
    ID : 2
    Format : MPEG-4 Visual
    Format profile : Advanced Simple@L1
    Format settings, BVOP : No
    Format settings, QPel : No
    Format settings, GMC : No warppoints
    Format settings, Matrix : Default (H.263)
    Codec ID : 20
    Duration : 1mn 33s
    Bit rate mode : Variable
    Bit rate : 908 Kbps
    Maximum bit rate : 5 760 Kbps
    Width : 1 920 pixels
    Height : 1 080 pixels
    Display aspect ratio : 16:9
    Frame rate mode : Constant
    Frame rate : 15.000 fps
    Color space : YUV
    Chroma subsampling : 4:2:0
    Bit depth : 8 bits
    Scan type : Progressive
    Compression mode : Lossy
    Bits/(Pixel*Frame) : 0.029
    Stream size : 10.1 MiB (88%)
    Writing library : Lavc55.52.102
    Language : English
    Encoded date : UTC 2015-03-02 19:23:12
    Tagged date : UTC 2015-03-02 19:23:12
    Audio
    ID : 1
    Format : AAC
    Format/Info : Advanced Audio Codec
    Format profile : LC
    Codec ID : 40
    Duration : 1mn 33s
    Bit rate mode : Constant
    Bit rate : 125 Kbps
    Channel(s) : 2 channels
    Channel positions : Front: L R
    Sampling rate : 48.0 KHz
    Compression mode : Lossy
    Stream size : 1.40 MiB (12%)
    Language : English
    Encoded date : UTC 2015-03-02 19:23:12
    Tagged date : UTC 2015-03-02 19:23:12


    Скриншоты для ознакомления




    InfiniteSkills | Профессиональное руководство по взлому и проникновению в беспроводную сеть WiFi (2015) PCRec [H.264/1080p]
    загрузка...
    Рейтинг →
     (голосов: 1, оценка 4/5, голосовать можно 1 раз )

    Другие торренты по теме:

  • InfiniteSkills | Professional Guide to Wireless Network Hacking and Penetration Testing (2015) PCRec [EN] скачать через торрент бесплатно


    • Комментарии (0):

      Информация

      Информация

        Посетители, находящиеся в группе Гости, не могут оставлять комментарии в данной новости.

        ↓ Меню




        ↓ Опрос

        Вы добавили сайт в закладки?
        Да
        Нет


        Top 10 за месяц (Книги)

        Марк Мэнсон | Тонкое искусство пофигизма. Парадоксальный способ жить счастливо (2017) [FB2, RTF]

        (скачиваний: 37)
        А.В. Дроган | Разумная психология. НЛП с нуля или игры разума (2006) [FB2, EPUB]

        (скачиваний: 29)
        Лисса Рэнкин | Исцеление от страха (2015) [FB2, EPUB]

        (скачиваний: 26)
        Павел Секун | Вы будете богаты и счастливы, если сделаете все, что написано в этой книге (2016) [FB2, EPUB]

        (скачиваний: 24)
        Борис Акимов | Медитация. Самовнушение. Аутотренинг. Самые эффективные психотехники (2014) [FB2, EPUB]

        (скачиваний: 23)
        Е. Афанасова | Готовим вино, наливки, настойки (2017) [PDF]

        (скачиваний: 22)
        Брайан Кристиан, Том Гриффитс | Алгоритмы для жизни: Простые способы принимать верные решения (2017) [FB2]

        (скачиваний: 22)
        Эмма Сарджент, Тим Фиерон | Научиться вести разговор в любой ситуации (2012) [PDF]

        (скачиваний: 21)
        Книжная серия | Тайны Третьего Рейха [6 книг] (2000-2011) [FB2, EPUB]

        (скачиваний: 21)
        Геннадий Кибардин | Су-Джок лечит: мигрень, кашель, боль в спине, тяжесть в желудке (2016) [FB2, EPUB]

        (скачиваний: 20)