.
Авторизация | Регистрация
Хочешь лучшие торренты? Добавь свой email!
Добавить

Торрент скачать бесплатно

» » Екатерина Буслова | Как гарантированно уберечь ребенка от экранной и компьютерной зависимости и помочь справиться с ней (2015) PCRec торрент скачать бесплатно




    Екатерина Буслова | Как гарантированно уберечь ребенка от экранной и компьютерной зависимости и помочь справиться с ней (2015) PCRec торрент скачать бесплатно

    Опубликовал: Админ | Дата: 10-02-2016, 04:02 | Просмотров: 104

    Автор (режиссер): Екатерина Буслова
    Жанр: Интернет-тренинг, зависимость

    Описание

    Получите исчерпывающую информацию от профессионального психолога о том, как гарантированно защитить вашего ребёнка от компьютерной зависимости сейчас и в будущем.
    ЭТОТ ТРЕНИНГ ДЛЯ ВАС, ЕСЛИ:
    Вы - родитель ребёнка от 2 до 15 лет.
    Вы хотите защитить Вашего ребёнка от экранной зависимости сейчас и в будущем (компьютер, планшет, телефон, тв).
    Вы понимаете, что у Вашего ребёнка уже есть экранная или компьютерная зависимость и Вы хотите помочь ему как можно быстрее с ней справиться.
    ВНИМАНИЕ!
    Если Ваш ребёнок проводит многие часы своей жизни, уткнувшись в экран компьютера, телефона или планшета, постоянно просит Вас скачать новые игры или скачивает их сам, становится рассеянным и несобранным, постоянно старается улучить момент, чтобы включить компьютер —не теряйте времени! Спасайте Вашего ребёнка!
    Продолжительность: 06: 47: 16
    Качество видео: PCRec
    Видео: WMV2, 640x480, ~7000kbps
    Аудио: WMA, 2 ch, 128kbps
    Код:

    General
    Complete name : D:ТоррентыУберечь ребенка от зависимости1. Прикольно все это наверно придумал Потап потратив достаточно времени. ТренингТренинг_Как уберечь ребенка от компьютерной зависимости_1.1.wmv
    Format : Windows Media
    File size : 134 MiB
    Duration : 1h 10mn
    Overall bit rate mode : Constant
    Overall bit rate : 266 Kbps
    Maximum Overall bit rate : 7 185 Kbps
    Encoded date : UTC 2013-11-13 12:17:41.352
    Cover : Y
    Video
    ID : 1
    Format : VC-1
    Format profile : MP@ML
    Codec ID : WMV3
    Codec ID/Info : Windows Media Video 9
    Codec ID/Hint : WMV3
    Description of the codec : Windows Media Video 9 - Professional
    Duration : 1h 10mn
    Bit rate mode : Constant
    Bit rate : 7 000 Kbps
    Width : 640 pixels
    Height : 480 pixels
    Display aspect ratio : 4:3
    Frame rate : 29.970 fps
    Color space : YUV
    Chroma subsampling : 4:2:0
    Bit depth : 8 bits
    Scan type : Progressive
    Compression mode : Lossy
    Bits/(Pixel*Frame) : 0.760
    Stream size : 3.45 GiB
    Audio
    ID : 2
    Format : WMA
    Format profile : Pro
    Codec ID : 162
    Codec ID/Info : Windows Media Audio
    Description of the codec : Windows Media Audio 10 Professional - 128 kbps, 48 kHz, 2 channel 16 bit (A/V) 1-pass CBR
    Duration : 1h 10mn
    Bit rate mode : Constant
    Bit rate : 128 Kbps
    Channel(s) : 2 channels
    Sampling rate : 48.0 KHz
    Bit depth : 16 bits
    Stream size : 64.6 MiB (48%)


    Скриншоты для ознакомления




    Екатерина Буслова | Как гарантированно уберечь ребенка от экранной и компьютерной зависимости и помочь справиться с ней (2015) PCRec
    загрузка...
    Рейтинг →
     (голосов: 1, оценка 4/5, голосовать можно 1 раз )

    Другие торренты по теме:

  • Екатерина Волкова, Екатерина Прудникова | Шахматы с енотом. Рабочая тетрадь № 1 (2017) [PDF]
  • Екатерина Федорова | Игра на волшебной флейте [Полный комплект] (2013) CamRip [H.264]
  • Екатерина Нечипоренко | MS Excel 2013. Продвинутый курс (2014) PCRec [H.264 / 720p-LQ] скачать через торрент бесплатно
  • Бужинская Екатерина - 7 альбомов (1998-2012) [MP3|320 кб / с]<Pop>
  • Екатерина Нечипоренко | MS Excel 2013. Базовый курс (2014) PCRec [H.264 / 720p-LQ] скачать через торрент бесплатно
  • Екатерина (2014) HDTVRip [H.264] (серии 1-4 из 12) (обновляемая) скачать через торрент бесплатно
  • Екатерина (2014) HDTVRip [H.264 / 720p-LQ] (серии 1-9 из 9)
  • Екатерина (2014) WEB-DLRip (серии 1-5 из 10) (обновляемая) скачать через торрент бесплатно


    • Комментарии (0):

      Информация

      Информация

        Посетители, находящиеся в группе Гости, не могут оставлять комментарии в данной новости.

        ↓ Меню




        ↓ Опрос

        Вы добавили сайт в закладки?
        Да
        Нет


        Top 10 за месяц (Книги)

        Джиллиан Майклз | Знаменитая программа Джиллиан Майклз: Стройное и здоровое тело за 30 дней (2016) [FB2]

        (скачиваний: 54)
        И.Б. Фефилова | Антивозрастная медицина. Современная энциклопедия (2015) [PDF, EPUB]

        (скачиваний: 31)
        Михаил Диденко | Русский стиль выживания. Как остаться в живых одному в лесу (2017) [PDF, FB2]

        (скачиваний: 27)
        Михаил Лабковский | Хочу и буду: Принять себя, полюбить жизнь и стать счастливым (2017) [FB2, EPUB]

        (скачиваний: 24)
        Александр Клинге | Ленин. Самая правдивая биография Ильича (2017) [FB2, EPUB]

        (скачиваний: 23)
        Евгений Старухин | Цикл «Лесовик» [4 книги. Обновляемая] (2015-2017) [FB2]

        (скачиваний: 20)
        Дэвид Агус | Завтра начинается сегодня. Как воспользоваться достижениями anti-age медицины (2017) [FB2, EPUB]

        (скачиваний: 20)
        Давид Дубницкий | Жанровый НЮ-портрет (2016) PCRec

        (скачиваний: 20)
        Джон Дуглас, Марк Олшейкер | Психологический портрет убийцы. Методики ФБР (2016) [FB2, EPUB]

        (скачиваний: 19)
        Лидия Резник | 25 любимых специй (2017) [FB2]

        (скачиваний: 19)