.
Авторизация | Регистрация
Хочешь лучшие торренты? Добавь свой email!
Добавить

Торрент скачать бесплатно

» » Брайан Трейси | Онлайн- практикум. Достижение максимума: ключ к личному и бизнес успеху (2015) WEB-DL торрент скачать бесплатно




    Брайан Трейси | Онлайн- практикум. Достижение максимума: ключ к личному и бизнес успеху (2015) WEB-DL торрент скачать бесплатно

    Опубликовал: Админ | Дата: 9-02-2016, 04:02 | Просмотров: 169

    Автор (режиссер): Брайан Трейси
    Производство: Синергия
    Жанр: Бизнес-образование, психология

    Описание

    Практикум состоит из 8 занятий продолжительностью 35-50 минут каждый. Прикольно все это наверно придумал Китай потратив достаточно времени. Акцент сделан на работу с самоанализом, который подталкивает на то, чтобы первично убрать причины, мешающие человеку достигать успеха.
    Некоторые темы представлены в дополнительной информации.
    Продолжительность: 06: 26: 03
    Качество видео: WEB-DL
    Видео: AVC, 480 х 854, ~1028 кбит
    Аудио: AAC, 2 ch, 125 кбит, CBR
    Код:

    Формат : MPEG-4
    Профиль формата : Base Media/Version 2
    Идентификатор кодека : mp42 (mp42/mp41)
    Размер файла : 234 Мбайт
    Продолжительность : 31 м.
    Режим общего битрейта : Переменный
    Общий поток : 1033 Кбит/сек
    Дата кодирования : UTC 2015-08-03 10:35:03
    Дата пометки : UTC 2015-08-03 10:35:06
    ©TIM : 00:34:02:14
    ©TSC : 24
    ©TSZ : 1
    Видео
    Идентификатор : 1
    Формат : AVC
    Формат/Информация : Advanced Video Codec
    Профиль формата :High@L3.1
    Параметр CABAC формата : Да
    Параметр ReFrames формата : 3 кадра
    Идентификатор кодека : avc1
    Идентификатор кодека/Информация : Advanced Video Coding
    Продолжительность : 31 м.
    Вид битрейта : Переменный
    Битрейт : 903 Кбит/сек
    Максимальный битрейт : 5000 Кбит/сек
    Ширина : 854 пикселя
    Высота : 480 пикселей
    Соотношение сторон : 16:9
    Режим частоты кадров : Постоянный
    Частота кадров : 24, 000 кадра/сек
    Стандарт вещания : NTSC
    Цветовое пространство : YUV
    Субдискретизация насыщенности : 4:2:0
    Битовая глубина : 8 бит
    Тип развёртки : Прогрессивная
    Бит/(Пиксели*Кадры) : 0.092
    Размер потока : 205 Мбайт (87%)
    Дата кодирования : UTC 2015-08-03 10:35:03
    Дата пометки : UTC 2015-08-03 10:35:03
    Цветовой диапазон : Limited
    Основные цвета : BT.601 NTSC
    Характеристики трансфера : BT.709
    Коэффициенты матрицы : BT.709
    Аудио
    Идентификатор : 2
    Формат : AAC
    Формат/Информация : Advanced Audio Codec
    Профиль формата : LC
    Идентификатор кодека : 40
    Продолжительность : 31 м.
    Продолжительность оригинала : 31 м.
    Вид битрейта : Переменный
    Битрейт : 125 Кбит/сек
    Максимальный битрейт : 208 Кбит/сек
    Каналы : 2 канала
    Расположение каналов : Front: L R
    Частота : 48, 0 КГц
    Частота кадров : 46, 875 кадров/сек (1024 spf)
    Метод сжатия : С потерями
    Размер потока : 28, 4 Мбайт (12%)
    Размер потока оригинала : 28, 4 Мбайт (12%)
    Язык : English
    Дата кодирования : UTC 2015-08-03 10:35:03
    Дата пометки : UTC 2015-08-03 10:35:03


    Скриншоты для ознакомления




    Брайан Трейси | Онлайн- практикум. Достижение максимума: ключ к личному и бизнес успеху (2015) WEB-DL
    загрузка...
    Рейтинг →
     (голосов: 1, оценка 4/5, голосовать можно 1 раз )

    Другие торренты по теме:

  • Брайан Трейси, Питер Чи / Мария Соколова | Брайан Трейси - 12 принципов лидерского превосходства. Книга в кратком изложении (2016) [PDF]
  • Брайан Трейси, Кэмпбелл Фрейзер | Технология достижений. Турбокоучинг по Брайану Трейси (2014) [FB2, DOCX]
  • Брайан Трейси | Тайм-менеджмент (2015) [FB2, EPUB] скачать через торрент бесплатно
  • Брайан Трейси, Питер Чи | 12 принципов лидерского превосходства. Как добиваться максимума (2015) [FB2] скачать через торрент бесплатно
  • Брайан Трейси | Выйди из зоны комфорта. Измени свою жизнь. 21 метод повышения личной эффективности (2013) [FB2, DOCX]
  • Брайан Трейси | Обновление. Пошаговый план личного развития (2015) [FB2]
  • Брайан Трейси | Искусство заключения сделок (2014) [FB2]
  • Брайан Трейси | Зарабатывайте столько, сколько вы стоите (2014) [FB2]


    • Комментарии (0):

      Информация

      Информация

        Посетители, находящиеся в группе Гости, не могут оставлять комментарии в данной новости.

        ↓ Меню




        ↓ Опрос

        Вы добавили сайт в закладки?
        Да
        Нет


        Top 10 за месяц (Книги)

        Джиллиан Майклз | Знаменитая программа Джиллиан Майклз: Стройное и здоровое тело за 30 дней (2016) [FB2]

        (скачиваний: 54)
        И.Б. Фефилова | Антивозрастная медицина. Современная энциклопедия (2015) [PDF, EPUB]

        (скачиваний: 31)
        Михаил Диденко | Русский стиль выживания. Как остаться в живых одному в лесу (2017) [PDF, FB2]

        (скачиваний: 26)
        Михаил Лабковский | Хочу и буду: Принять себя, полюбить жизнь и стать счастливым (2017) [FB2, EPUB]

        (скачиваний: 24)
        Александр Клинге | Ленин. Самая правдивая биография Ильича (2017) [FB2, EPUB]

        (скачиваний: 23)
        Давид Дубницкий | Жанровый НЮ-портрет (2016) PCRec

        (скачиваний: 20)
        Евгений Старухин | Цикл «Лесовик» [4 книги. Обновляемая] (2015-2017) [FB2]

        (скачиваний: 20)
        Дэвид Агус | Завтра начинается сегодня. Как воспользоваться достижениями anti-age медицины (2017) [FB2, EPUB]

        (скачиваний: 20)
        Джон Дуглас, Марк Олшейкер | Психологический портрет убийцы. Методики ФБР (2016) [FB2, EPUB]

        (скачиваний: 19)
        Лидия Резник | 25 любимых специй (2017) [FB2]

        (скачиваний: 19)