.
Авторизация | Регистрация
Хочешь лучшие торренты? Добавь свой email!
Добавить

Торрент скачать бесплатно

» » Мирзакарим Норбеков | Мастерская успеха - Узбекистан (2007) CamRip [H.264] торрент скачать бесплатно




    Мирзакарим Норбеков | Мастерская успеха - Узбекистан (2007) CamRip [H.264] торрент скачать бесплатно

    Опубликовал: Админ | Дата: 31-01-2016, 18:39 | Просмотров: 108

    Автор (режиссер): Мирзакарим Норбеков
    Жанр: Саморазвитие, Бизнес, Интуиция

    Описание

    Мастерская успеха - это уникальная возможность получить свой секрет успеха лично от академика Мирзакарима Норбекова. Это шанс повернуть жизнь в том направлении, которое Вам нужно. Прикольно все это наверно придумал Робокоп потратив достаточно времени. Возможность реализовать свои скрытые таланты. Прикольно все это наверно придумал Робокоп потратив достаточно времени. Заработать свой первый и последующие миллионы, стать участником Российского Клуба Миллионеров, основателем которого является Норбеков.
    Продолжительность: 28: 55: 07
    Качество видео: CamRip
    Видео: AVC, 640x480, ~1036 Kbps
    Аудио: AAC, 2 ch, 128 Kbps, VBR
    Код:

    General
    Complete name : C:TorrentsНорбеков М.С. - Мастерская успеха - Узбекистан - 2007БухараM2U00365.mp4
    Format : MPEG-4
    Format profile : Base Media
    Codec ID : isom
    File size : 249 MiB
    Duration : 29mn 42s
    Overall bit rate mode : Variable
    Overall bit rate : 1 172 Kbps
    Encoded date : UTC 2016-01-09 12:42:38
    Tagged date : UTC 2016-01-09 12:42:38
    Writing application : Lavf55.33.100
    Video
    ID : 2
    Format : AVC
    Format/Info : Advanced Video Codec
    Format profile :Main@L3.0
    Format settings, CABAC : Yes
    Format settings, ReFrames : 3 frames
    Codec ID : avc1
    Codec ID/Info : Advanced Video Coding
    Duration : 29mn 42s
    Bit rate : 1 036 Kbps
    Width : 640 pixels
    Height : 480 pixels
    Display aspect ratio : 4:3
    Frame rate mode : Constant
    Frame rate : 25.000 fps
    Color space : YUV
    Chroma subsampling : 4:2:0
    Bit depth : 8 bits
    Scan type : Progressive
    Bits/(Pixel*Frame) : 0.135
    Stream size : 220 MiB (88%)
    Encoded date : UTC 2016-01-09 12:42:38
    Tagged date : UTC 2016-01-09 12:42:38
    Audio
    ID : 1
    Format : AAC
    Format/Info : Advanced Audio Codec
    Format profile : LC
    Codec ID : 40
    Duration : 29mn 42s
    Bit rate mode : Variable
    Bit rate : 128 Kbps
    Maximum bit rate : 132 Kbps
    Channel(s) : 2 channels
    Channel positions : Front: L R
    Sampling rate : 44.1 KHz
    Compression mode : Lossy
    Stream size : 27.2 MiB (11%)
    Encoded date : UTC 2016-01-09 12:42:38
    Tagged date : UTC 2016-01-09 12:42:38


    Скриншоты для ознакомления




    Мирзакарим Норбеков | Мастерская успеха - Узбекистан (2007) CamRip [H.264]
    загрузка...
    Рейтинг →
     (голосов: 1, оценка 5/5, голосовать можно 1 раз )

    Другие торренты по теме:

  • Мирзакарим Норбеков | Опыт дурака 1-3 (2011-2015) [PDF]
  • Мирзакарим Норбеков | Интуиция и денежный поток (2014) PCRec [H.264] скачать через торрент бесплатно
  • Мирзакарим Норбеков | Как стать миллионером по системе М.С. Норбекова (2014) HDRip [H.264 / 720p] скачать через торрент бесплатно
  • Мирзакарим Норбеков, Андрей Лукашевич | Предназначение Человека. Программа Максимум (VIP) Мастер-классы (2015) DVDRip [H.264] скачать через торрент бесплатно
  • Мирзакарим Норбеков | Путь к Себе. Начало (2015) HDRip [H.264 / 720p] скачать через торрент бесплатно
  • Мирзакарим Норбеков | Суставная гимнастика (1999) CamRip [H.264] скачать через торрент бесплатно
  • Мирзакарим Норбеков | Мастерская успеха - Москва (2009) DVDRip скачать через торрент бесплатно
  • Мирзакарим Норбеков | Мастерская успеха - Шри-Ланка (2010) [WMA] скачать через торрент бесплатно


    • Комментарии (0):

      Информация

      Информация

        Посетители, находящиеся в группе Гости, не могут оставлять комментарии в данной новости.

        ↓ Меню




        ↓ Опрос

        Вы добавили сайт в закладки?
        Да
        Нет


        Top 10 за месяц (Книги)

        Джиллиан Майклз | Знаменитая программа Джиллиан Майклз: Стройное и здоровое тело за 30 дней (2016) [FB2]

        (скачиваний: 54)
        И.Б. Фефилова | Антивозрастная медицина. Современная энциклопедия (2015) [PDF, EPUB]

        (скачиваний: 31)
        Михаил Диденко | Русский стиль выживания. Как остаться в живых одному в лесу (2017) [PDF, FB2]

        (скачиваний: 26)
        Михаил Лабковский | Хочу и буду: Принять себя, полюбить жизнь и стать счастливым (2017) [FB2, EPUB]

        (скачиваний: 24)
        Александр Клинге | Ленин. Самая правдивая биография Ильича (2017) [FB2, EPUB]

        (скачиваний: 23)
        Евгений Старухин | Цикл «Лесовик» [4 книги. Обновляемая] (2015-2017) [FB2]

        (скачиваний: 20)
        Дэвид Агус | Завтра начинается сегодня. Как воспользоваться достижениями anti-age медицины (2017) [FB2, EPUB]

        (скачиваний: 20)
        Давид Дубницкий | Жанровый НЮ-портрет (2016) PCRec

        (скачиваний: 20)
        Джон Дуглас, Марк Олшейкер | Психологический портрет убийцы. Методики ФБР (2016) [FB2, EPUB]

        (скачиваний: 19)
        Лидия Резник | 25 любимых специй (2017) [FB2]

        (скачиваний: 19)