.
Авторизация | Регистрация
Хочешь лучшие торренты? Добавь свой email!
Добавить

Торрент скачать бесплатно

» » Search Engine Education | SEO-Коучинг Новый метод обучения SEO (2015) PCRec [H.264 / 720p] скачать через торрент бесплатно




    Search Engine Education | SEO-Коучинг Новый метод обучения SEO (2015) PCRec [H.264 / 720p] скачать через торрент бесплатно

    Опубликовал: Админ | Дата: 29-12-2015, 04:01 | Просмотров: 158

    Автор (режиссер): Search Engine Education
    Производство: Россия
    Жанр: SEO

    Описание

    Описание курса:
    SEO-Коучинг - курс не для новичков и будет актуален для специалистов с опытом от 6 месяцев.
    За 5 дней Вы узнаете, как продвигать сайты в поисковых системах с учетом новых изменений
    (алгоритмы Минусинск, АГС).
    Вы узнаете, как:
    Оптимизировать тексты на сайте;
    Оптимизировать шаблоны сайтов;
    Строить ссылочную стратегию при текущих алгоритмах.
    Вы получите все самые актуальные знания в SEO, новые успешные кейсы, работающие методики
    для улучшений позиций и трафика.
    Продолжительность: 20: 44: 21
    Качество видео: PCRec
    Видео: AVC/H.264, 1280x720, ~899 Kbps
    Аудио: MP3, 2 ch, 128 Kbps, CBR
    Код:

    General
    Complete name : C:UsersUserDownloadsSEO-Коучинг Новый метод обучения SEOДень 1День 1.avi
    Format : AVI
    Format/Info : Audio Video Interleave
    File size : 1.52 GiB
    Duration : 3h 29mn
    Overall bit rate : 1 037 Kbps
    Video
    ID : 0
    Format : AVC
    Format/Info : Advanced Video Codec
    Format profile :Main@L4.1
    Format settings, CABAC : Yes
    Format settings, ReFrames : 2 frames
    Codec ID : H264
    Duration : 3h 29mn
    Bit rate : 899 Kbps
    Width : 1 280 pixels
    Height : 720 pixels
    Display aspect ratio : 16:9
    Frame rate : 24.000 fps
    Color space : YUV
    Chroma subsampling : 4:2:0
    Bit depth : 8 bits
    Scan type : Progressive
    Bits/(Pixel*Frame) : 0.041
    Stream size : 1.32 GiB (87%)
    Audio
    ID : 1
    Format : MPEG Audio
    Format version : Version 1
    Format profile : Layer 3
    Codec ID : 55
    Codec ID/Hint : MP3
    Duration : 3h 29mn
    Bit rate mode : Constant
    Bit rate : 128 Kbps
    Channel(s) : 2 channels
    Sampling rate : 44.1 KHz
    Compression mode : Lossy
    Stream size : 192 MiB (12%)
    Alignment : Split accross interleaves
    Interleave, duration : 42 ms (1.00 video frame)
    Interleave, preload duratio : 227 ms
    Writing library : LAMELAME_MAJOR_VERSI


    Скриншоты для ознакомления




    Search Engine Education | SEO-Коучинг Новый метод обучения SEO (2015) PCRec [H.264/720p]
    загрузка...
    Рейтинг →
     (голосов: 1, оценка 4/5, голосовать можно 1 раз )

    Другие торренты по теме:

  • Search Engine Education | SEO-Коучинг 7.0 (2015) PCRec [H.264 / 720p] скачать через торрент бесплатно
  • Search Engine Education | SEO-ПРАКТИКУМ 3.0 (2015) PCRec [H.264 / 720p] скачать через торрент бесплатно
  • Проекты - VideoHive - Search Engine Advertisement [AEP]
  • Search Engine Education | SEO-Коучинг 9.0 (2016) PCRec [H.264 / 720p]


    • Комментарии (0):

      Информация

      Информация

        Посетители, находящиеся в группе Гости, не могут оставлять комментарии в данной новости.

        ↓ Меню




        ↓ Опрос

        Вы добавили сайт в закладки?
        Да
        Нет


        Top 10 за месяц (Книги)

        Марк Мэнсон | Тонкое искусство пофигизма. Парадоксальный способ жить счастливо (2017) [FB2, RTF]

        (скачиваний: 33)
        А.В. Дроган | Разумная психология. НЛП с нуля или игры разума (2006) [FB2, EPUB]

        (скачиваний: 26)
        Лисса Рэнкин | Исцеление от страха (2015) [FB2, EPUB]

        (скачиваний: 25)
        Павел Секун | Вы будете богаты и счастливы, если сделаете все, что написано в этой книге (2016) [FB2, EPUB]

        (скачиваний: 23)
        Борис Акимов | Медитация. Самовнушение. Аутотренинг. Самые эффективные психотехники (2014) [FB2, EPUB]

        (скачиваний: 21)
        Брайан Кристиан, Том Гриффитс | Алгоритмы для жизни: Простые способы принимать верные решения (2017) [FB2]

        (скачиваний: 21)
        Книжная серия | Тайны Третьего Рейха [6 книг] (2000-2011) [FB2, EPUB]

        (скачиваний: 21)
        Геннадий Кибардин | Су-Джок лечит: мигрень, кашель, боль в спине, тяжесть в желудке (2016) [FB2, EPUB]

        (скачиваний: 20)
        Е. Афанасова | Готовим вино, наливки, настойки (2017) [PDF]

        (скачиваний: 20)
        Эмма Сарджент, Тим Фиерон | Научиться вести разговор в любой ситуации (2012) [PDF]

        (скачиваний: 20)