.
Авторизация | Регистрация
Хочешь лучшие торренты? Добавь свой email!
Добавить

Торрент скачать бесплатно

» » Яна Граусова | Английский за 2 недели (2013) WEB-DL скачать через торрент бесплатно




    Яна Граусова | Английский за 2 недели (2013) WEB-DL скачать через торрент бесплатно

    Опубликовал: Админ | Дата: 24-11-2015, 04:03 | Просмотров: 207

    Автор (режиссер): Яна Граусова
    Жанр: Английский язык

    Описание

    Для тех, кому надоела старая работа и вы хотите найти новую, и вы просматриваете вакансии, которые вам нравятся , и вы с ужасом понимаете, что когда вы придете на собеседование, то вы не сможете ответить даже на банальные вопросы…
    Для тех, кто уже тысячу раз оставлял заявки на разных сайтах и проходил тест на знание языка, но каждый раз, когда ему звонил менеджер и предлагал расписание, вам было неудобно и вы раз за разом откладывали английский на потом, а даже если и доходили до курсов, осознавали, что из вас из месяца в месяц выкачивают деньги, выдавая кусочки знаний вместо системы мышления на английском языке.
    Для тех, кто разочаровался в традиционной системе обучения , вы учили язык в школе, вузе и может быть даже на курсах, и вы помните, как вы сидели за партой и вас заставляли учить неправильные глаголы, и у вас было ощущение, что учитель учит парочку человек за первой партой, а все остальные нормальные люди даже не понимали, про что им говорят.
    Для тех, у кого дома лежит огромная куча купленной литературы и учебников, но не приносит никакой пользы, а являются немым укором в собственной лени и напоминанием о том, сколько незаработанных денег каждый день проплывают мимо вас.
    Продолжительность: 18: 15: 59
    Качество видео: WEB-DL
    Видео: AVC/H.264, 636х356-640х360, ~500 Kbps
    Аудио: AAC, 2 ch, 128 Kbps, CBR
    Код:

    General
    Complete name : C:TorrentsГраусова Яна - Английский за 2 недели (2013)Уроки1 урок1 - Lesson 1 part 1.mp4
    Format : MPEG-4
    Format profile : Base Media
    Codec ID : isom
    File size : 198 MiB
    Duration : 43mn 4s
    Overall bit rate : 644 Kbps
    Writing application : Lavf54.37.100
    Video
    ID : 1
    Format : AVC
    Format/Info : Advanced Video Codec
    Format profile :High@L2.2
    Format settings, CABAC : Yes
    Format settings, ReFrames : 4 frames
    Codec ID : avc1
    Codec ID/Info : Advanced Video Coding
    Duration : 43mn 4s
    Bit rate : 500 Kbps
    Width : 640 pixels
    Height : 360 pixels
    Display aspect ratio : 16:9
    Frame rate mode : Constant
    Frame rate : 15.000 fps
    Color space : YUV
    Chroma subsampling : 4:2:0
    Bit depth : 8 bits
    Scan type : Progressive
    Bits/(Pixel*Frame) : 0.145
    Stream size : 158 MiB (79%)
    Writing library : x264 core 124
    Encoding settings : cabac=1/ref=3/deblock=1:0:0/analyse=0x3:0x113/me=hex/subme=7/psy=1/psy_rd=1.00:0.00/mixed_ref=1/me_range=16/chroma_me=1/trellis=1/8x8dct=1/cqm=0/deadzone=21, 11/fast_pskip=1/chroma_qp_offset=-2/threads=4/sliced_threads=0/nr=0/decimate=1/interlaced=0/bluray_compat=0/constrained_intra=0/bframes=3/b_pyramid=2/b_adapt=1/b_bias=0/direct=1/weightb=1/open_gop=0/weightp=2/keyint=250/keyint_min=15/scenecut=40/intra_refresh=0/rc_lookahead=40/rc=abr/mbtree=1/bitrate=500/ratetol=1.0/qcomp=0.60/qpmin=0/qpmax=69/qpstep=4/ip_ratio=1.40/aq=1:1.00
    Language : English
    Audio
    ID : 2
    Format : AAC
    Format/Info : Advanced Audio Codec
    Format profile : LC
    Codec ID : 40
    Duration : 43mn 4s
    Bit rate mode : Constant
    Bit rate : 128 Kbps
    Channel(s) : 2 channels
    Channel positions : Front: L R
    Sampling rate : 44.1 KHz
    Compression mode : Lossy
    Stream size : 39.4 MiB (20%)
    Код:

    General
    Complete name : C:TorrentsГраусова Яна - Английский за 2 недели (2013)Уроки26 урокVideo_2014-06-06_102239.wmv
    Format : Windows Media
    File size : 19.2 MiB
    Duration : 12mn 2s
    Overall bit rate mode : Variable
    Overall bit rate : 222 Kbps
    Maximum Overall bit rate : 527 Kbps
    Encoded date : UTC 2014-06-06 06:10:36.515
    Video
    ID : 2
    Format : VC-1
    Format profile : MP@ML
    Codec ID : WMV3
    Codec ID/Info : Windows Media Video 9
    Codec ID/Hint : WMV3
    Description of the codec : Windows Media Video 9
    Duration : 12mn 2s
    Bit rate mode : Variable
    Bit rate : 387 Kbps
    Width : 636 pixels
    Height : 356 pixels
    Display aspect ratio : 16:9
    Frame rate : 25.000 fps
    Color space : YUV
    Chroma subsampling : 4:2:0
    Bit depth : 8 bits
    Scan type : Progressive
    Compression mode : Lossy
    Bits/(Pixel*Frame) : 0.068
    Stream size : 33.4 MiB
    Language : English (US)
    Audio
    ID : 1
    Format : WMA
    Format version : Version 2
    Codec ID : 161
    Codec ID/Info : Windows Media Audio
    Description of the codec : Windows Media Audio 9.2 - 96 kbps, 44 kHz, stereo 1-pass CBR
    Duration : 12mn 2s
    Bit rate mode : Constant
    Bit rate : 96.0 Kbps
    Channel(s) : 2 channels
    Sampling rate : 44.1 KHz
    Bit depth : 16 bits
    Stream size : 8.27 MiB (43%)
    Language : English (US)


    Скриншоты для ознакомления




    Яна Граусова | Английский за 2 недели (2013) WEB-DL
    загрузка...
    Рейтинг →
     (голосов: 1, оценка 4/5, голосовать можно 1 раз )

    Другие торренты по теме:

  • Яна Граусова | Английский за 2 недели (2013) [MP3, MP4, PDF] скачать через торрент бесплатно
  • Яна Граусова | Английский за 2 недели (2013) CamRip скачать через торрент бесплатно


    • Комментарии (0):

      Информация

      Информация

        Посетители, находящиеся в группе Гости, не могут оставлять комментарии в данной новости.

        ↓ Меню




        ↓ Опрос

        Вы добавили сайт в закладки?
        Да
        Нет


        Top 10 за месяц (Книги)

        Марк Мэнсон | Тонкое искусство пофигизма. Парадоксальный способ жить счастливо (2017) [FB2, RTF]

        (скачиваний: 33)
        А.В. Дроган | Разумная психология. НЛП с нуля или игры разума (2006) [FB2, EPUB]

        (скачиваний: 26)
        Лисса Рэнкин | Исцеление от страха (2015) [FB2, EPUB]

        (скачиваний: 25)
        Павел Секун | Вы будете богаты и счастливы, если сделаете все, что написано в этой книге (2016) [FB2, EPUB]

        (скачиваний: 23)
        Книжная серия | Тайны Третьего Рейха [6 книг] (2000-2011) [FB2, EPUB]

        (скачиваний: 21)
        Борис Акимов | Медитация. Самовнушение. Аутотренинг. Самые эффективные психотехники (2014) [FB2, EPUB]

        (скачиваний: 21)
        Е. Афанасова | Готовим вино, наливки, настойки (2017) [PDF]

        (скачиваний: 20)
        Брайан Кристиан, Том Гриффитс | Алгоритмы для жизни: Простые способы принимать верные решения (2017) [FB2]

        (скачиваний: 20)
        Геннадий Кибардин | Су-Джок лечит: мигрень, кашель, боль в спине, тяжесть в желудке (2016) [FB2, EPUB]

        (скачиваний: 20)
        Эмма Сарджент, Тим Фиерон | Научиться вести разговор в любой ситуации (2012) [PDF]

        (скачиваний: 19)