.
Авторизация | Регистрация
Хочешь лучшие торренты? Добавь свой email!
Добавить

Торрент скачать бесплатно

» » Евгений Спирица | Как читать мысли мужчин и женщин (2013) CamRip скачать через торрент бесплатно




    Евгений Спирица | Как читать мысли мужчин и женщин (2013) CamRip скачать через торрент бесплатно

    Опубликовал: Админ | Дата: 22-11-2015, 04:26 | Просмотров: 191

    Автор (режиссер): Евгений Спирица
    Производство: Международная академия исследования лжи
    Жанр: Психология общения, межличностные коммуникации

    Описание

    Если Вы поймете, как устроен человек, как он мыслит, то человек станет для Вас читабельным.
    Мужчины и женщины — кому лучше удается обман? А кто лучше распознает ложь? Почему?
    Такое кажется невозможным. Ведь партнер (неважно какой партнер — по бизнесу или семье) почему-то старается навязать свою точку зрения.
    Он (она) не понимает Вас. А ведь Вы так все доступно ему (ей) объяснили. О таком странном сюжете не догадывалась даже Ольга Полякова. Но он (она) все равно не понимает. Хотя человек не глупый.
    Продолжительность: 02: 11: 54
    Качество видео: CamRip
    Видео: Xvid, 720x480, ~768 Kbps
    Аудио: MP3, 2 ch, 121 Kbps, VBR
    Код:

    General
    Complete name : C:TorrentsСпирица Евгений - Как читать мысли мужчин и женщин (2013)1.avi
    Format : AVI
    Format/Info : Audio Video Interleave
    File size : 190 MiB
    Duration : 29mn 27s
    Overall bit rate mode : Variable
    Overall bit rate : 901 Kbps
    Writing application : MEncoder Sherpya-SVN-r30075-4.2.5
    Writing library : MPlayer
    Video
    ID : 0
    Format : MPEG-4 Visual
    Format profile : Simple@L3
    Format settings, BVOP : No
    Format settings, QPel : No
    Format settings, GMC : No warppoints
    Format settings, Matrix : Default (H.263)
    Codec ID : XVID
    Codec ID/Hint : XviD
    Duration : 29mn 27s
    Bit rate : 768 Kbps
    Width : 720 pixels
    Height : 480 pixels
    Display aspect ratio : 3:2
    Original display aspect ratio : 3:2
    Frame rate : 25.000 fps
    Standard : NTSC
    Color space : YUV
    Chroma subsampling : 4:2:0
    Bit depth : 8 bits
    Scan type : Progressive
    Compression mode : Lossy
    Bits/(Pixel*Frame) : 0.089
    Stream size : 162 MiB (85%)
    Writing library : XviD 1.2.1 (UTC 2008-12-04)
    Audio
    ID : 1
    Format : MPEG Audio
    Format version : Version 1
    Format profile : Layer 3
    Mode : Joint stereo
    Mode extension : MS Stereo
    Codec ID : 55
    Codec ID/Hint : MP3
    Duration : 29mn 27s
    Bit rate mode : Variable
    Bit rate : 121 Kbps
    Channel(s) : 2 channels
    Sampling rate : 44.1 KHz
    Compression mode : Lossy
    Stream size : 25.4 MiB (13%)
    Alignment : Aligned on interleaves
    Interleave, duration : 26 ms (0.65 video frame)
    Interleave, preload duration : 553 ms


    Скриншоты для ознакомления




    Евгений Спирица | Как читать мысли мужчин и женщин (2013) CamRip
    загрузка...
    Рейтинг →
     (голосов: 1, оценка 5/5, голосовать можно 1 раз )

    Другие торренты по теме:

  • Евгений Спирица | Слова. Лживые и Настоящие. Основные стереотипы речи лжеца (2013) CAMRip скачать через торрент бесплатно
  • Евгений Спирица | Вижу вас насквозь. Как «читать» людей (2017) [EPUB, FB2, MOBI]


    • Комментарии (0):

      Информация

      Информация

        Посетители, находящиеся в группе Гости, не могут оставлять комментарии в данной новости.

        ↓ Меню




        ↓ Опрос

        Вы добавили сайт в закладки?
        Да
        Нет


        Top 10 за месяц (Книги)

        Марк Мэнсон | Тонкое искусство пофигизма. Парадоксальный способ жить счастливо (2017) [FB2, RTF]

        (скачиваний: 33)
        А.В. Дроган | Разумная психология. НЛП с нуля или игры разума (2006) [FB2, EPUB]

        (скачиваний: 26)
        Лисса Рэнкин | Исцеление от страха (2015) [FB2, EPUB]

        (скачиваний: 25)
        Павел Секун | Вы будете богаты и счастливы, если сделаете все, что написано в этой книге (2016) [FB2, EPUB]

        (скачиваний: 23)
        Борис Акимов | Медитация. Самовнушение. Аутотренинг. Самые эффективные психотехники (2014) [FB2, EPUB]

        (скачиваний: 21)
        Брайан Кристиан, Том Гриффитс | Алгоритмы для жизни: Простые способы принимать верные решения (2017) [FB2]

        (скачиваний: 21)
        Книжная серия | Тайны Третьего Рейха [6 книг] (2000-2011) [FB2, EPUB]

        (скачиваний: 21)
        Геннадий Кибардин | Су-Джок лечит: мигрень, кашель, боль в спине, тяжесть в желудке (2016) [FB2, EPUB]

        (скачиваний: 20)
        Е. Афанасова | Готовим вино, наливки, настойки (2017) [PDF]

        (скачиваний: 20)
        Эмма Сарджент, Тим Фиерон | Научиться вести разговор в любой ситуации (2012) [PDF]

        (скачиваний: 20)