.
Авторизация | Регистрация
Хочешь лучшие торренты? Добавь свой email!
Добавить

Торрент скачать бесплатно

» » Зинаида Лукьянова | Photoshop. Уроки повышения мастерства 2.0 (2015) VIP версия с бонусами [H.264] скачать через торрент бесплатно




    Зинаида Лукьянова | Photoshop. Уроки повышения мастерства 2.0 (2015) VIP версия с бонусами [H.264] скачать через торрент бесплатно

    Опубликовал: Админ | Дата: 20-11-2015, 04:15 | Просмотров: 630

    Автор (режиссер): Автор: Лукьянова З., Карташов Е., Виноградова Е.
    Производство: http://photoshop-master.org
    Жанр: Видеоуроки

    Описание

    Эта коллекция уроков предназначена для тех, кто хочет улучшить свои навыки владения программой Adobe Photoshop через большое количество практической работы.
    Наша коллекция Photoshop. Уроки повышения мастерства будет вашим идеальным помощником на этом пути. Пройдите все 100 уроков, и вы сами не заметите, как подниметесь на новый уровень владения этой программой.
    Продолжительность: ~25 часов
    Качество видео: TS
    Видео: AVC/H.264, 1024х760-1280x720, ~672 Kbps
    Аудио: AAC, 126-526 Kbps
    Код:

    Общее
    Полное имя Photoshop. Уроки для повышения мастерства 2.0
    Формат : MPEG-4
    Профиль формата : Base Media/Version 2
    Идентификатор кодека : mp42
    Размер файла : 57, 7 Мбайт
    Продолжительность : 17 м.
    Режим общего битрейта : Переменный
    Общий поток : 456 Кбит/сек
    Дата кодирования : UTC 2013-11-08 02:42:07
    Дата пометки : UTC 2013-11-08 02:42:07
    Видео
    Идентификатор : 1
    Формат : AVC
    Формат/Информация : Advanced Video Codec
    Профиль формата :Baseline@L3.2
    Параметр CABAC формата : Нет
    Параметр ReFrames формата : 3 кадра
    Параметр GOP формата : M=1, N=70
    Идентификатор кодека : avc1
    Идентификатор кодека/Информация : Advanced Video Coding
    Продолжительность : 17 м.
    Продолжительность оригинала : 17 м.
    Битрейт : 329 Кбит/сек
    Ширина : 1280 пикселей
    Высота : 800 пикселей
    Соотношение сторон : 16:10
    Режим частоты кадров : Переменный
    Частота кадров : 7, 000 кадров/сек
    Минимальная частота кадров : 7, 000 кадров/сек
    Максимальная частота кадров : 7, 007 кадров/сек
    Цветовое пространство : YUV
    Субдискретизация насыщенности : 4:2:0
    Битовая глубина : 8 бит
    Тип развёртки : Прогрессивная
    Бит/(Пиксели*Кадры) : 0.046
    Размер потока : 41, 6 Мбайт (72%)
    Размер потока оригинала : 41, 6 Мбайт (72%)
    Язык : English
    Дата кодирования : UTC 2013-11-08 02:42:08
    Дата пометки : UTC 2013-11-08 02:42:08
    Цветовой диапазон : Limited
    mdhd_Duration : 1060000
    Аудио
    Идентификатор : 2
    Формат : AAC
    Формат/Информация : Advanced Audio Codec
    Профиль формата : LC
    Идентификатор кодека : 40
    Продолжительность : 17 м.
    Продолжительность оригинала : 17 м.
    Вид битрейта : Переменный
    Битрейт : 126 Кбит/сек
    Максимальный битрейт : 526 Кбит/сек
    Каналы : 2 канала
    Расположение каналов : Front: L R
    Частота : 44, 1 КГц
    Метод сжатия : С потерями
    Размер потока : 15, 9 Мбайт (28%)
    Размер потока оригинала : 15, 9 Мбайт (28%)
    Язык : English
    Дата кодирования : UTC 2013-11-08 02:42:08
    Дата пометки : UTC 2013-11-08 02:42:08
    mdhd_Duration : 1059945


    Скриншоты для ознакомления




    Зинаида Лукьянова | Photoshop. Уроки повышения мастерства 2.0 (2015) VIP версия с бонусами [H.264]
    загрузка...
    Рейтинг →
     (голосов: 1, оценка 4/5, голосовать можно 1 раз )

    Другие торренты по теме:

  • Зинаида Лукьянова | Коллекция видеокурсов по фото-видео обработке от Зинаиды Лукьяновой (2015) PCRec [H.264 / 720p] скачать через торрент бесплатно
  • Зинаида Лукьянова и Евгений Попов | Видеоуроки Adobe Photoshop от Зинаиды Лукьяновой и Евгения Попова (2007-2015) [SWF] [Обновление от 10.09.2015] скачать через торрент бесплатно
  • Зинаида Лукьянова | Фотошоп с нуля в видеоформате 3.0 (2015) PCRec [H.264 / 720p] скачать через торрент бесплатно


    • Комментарии (0):

      Информация

      Информация

        Посетители, находящиеся в группе Гости, не могут оставлять комментарии в данной новости.

        ↓ Меню




        ↓ Опрос

        Вы добавили сайт в закладки?
        Да
        Нет


        Top 10 за месяц (Книги)

        Марк Мэнсон | Тонкое искусство пофигизма. Парадоксальный способ жить счастливо (2017) [FB2, RTF]

        (скачиваний: 38)
        А.В. Дроган | Разумная психология. НЛП с нуля или игры разума (2006) [FB2, EPUB]

        (скачиваний: 29)
        Лисса Рэнкин | Исцеление от страха (2015) [FB2, EPUB]

        (скачиваний: 26)
        Борис Акимов | Медитация. Самовнушение. Аутотренинг. Самые эффективные психотехники (2014) [FB2, EPUB]

        (скачиваний: 24)
        Павел Секун | Вы будете богаты и счастливы, если сделаете все, что написано в этой книге (2016) [FB2, EPUB]

        (скачиваний: 24)
        Брайан Кристиан, Том Гриффитс | Алгоритмы для жизни: Простые способы принимать верные решения (2017) [FB2]

        (скачиваний: 23)
        Е. Афанасова | Готовим вино, наливки, настойки (2017) [PDF]

        (скачиваний: 23)
        Евгений Старухин | Цикл «Лесовик» [4 книги. Обновляемая] (2015-2017) [FB2]

        (скачиваний: 22)
        Книжная серия | Тайны Третьего Рейха [6 книг] (2000-2011) [FB2, EPUB]

        (скачиваний: 21)
        Эмма Сарджент, Тим Фиерон | Научиться вести разговор в любой ситуации (2012) [PDF]

        (скачиваний: 21)