.
Авторизация | Регистрация
Хочешь лучшие торренты? Добавь свой email!
Добавить

Торрент скачать бесплатно

» » Виктор Толкачёв | Роскошь системного самопознания (2013) HDRip [H.264 / 720p] скачать через торрент бесплатно




    Виктор Толкачёв | Роскошь системного самопознания (2013) HDRip [H.264 / 720p] скачать через торрент бесплатно

    Опубликовал: Админ | Дата: 18-10-2015, 04:02 | Просмотров: 172

    Автор (режиссер): Виктор Толкачёв
    Жанр: Самопознание

    Описание

    Роскошь системного самопознания или прикладной системно-векторный психоанализ для Жизни Здесь и Сейчас!
    Знаменитый Тренинг ВиктОра Константиновича Толкачёва теперь на видео для личного просмотра!Вспомнить, увидеть новым вглядом, впервые соприкоснуться с данной наукой - наукой будущего всего человечества.
    Продолжительность: 30: 52: 02
    Качество видео: HDRip
    Видео: AVC/H.264, 1280х720, ~818 Kbps
    Аудио: MP3, 2 ch, 128 Kbps, CBR
    Код:

    General
    Complete name : C:TorrentsВиктор Толкачев - Роскошь системного самопознания1.mp4
    Format : MPEG-4
    Format profile : Base Media/Version 2
    Codec ID : mp42
    File size : 192 MiB
    Duration : 28mn 20s
    Overall bit rate : 948 Kbps
    Encoded date : UTC 2011-09-09 10:52:14
    Tagged date : UTC 2011-09-09 11:41:03
    Video
    ID : 1
    Format : AVC
    Format/Info : Advanced Video Codec
    Format profile :Main@L3.1
    Format settings, CABAC : Yes
    Format settings, ReFrames : 1 frame
    Codec ID : avc1
    Codec ID/Info : Advanced Video Coding
    Duration : 28mn 20s
    Bit rate : 818 Kbps
    Width : 1 280 pixels
    Height : 720 pixels
    Display aspect ratio : 16:9
    Frame rate mode : Variable
    Frame rate : 30.000 fps
    Minimum frame rate : 29.990 fps
    Maximum frame rate : 30.010 fps
    Color space : YUV
    Chroma subsampling : 4:2:0
    Bit depth : 8 bits
    Scan type : Progressive
    Bits/(Pixel*Frame) : 0.030
    Stream size : 166 MiB (86%)
    Language : English
    Encoded date : UTC 2011-09-09 10:52:14
    Tagged date : UTC 2011-09-09 11:41:03
    Audio
    ID : 2
    Format : MPEG Audio
    Format version : Version 1
    Format profile : Layer 3
    Codec ID : 6B
    Duration : 28mn 20s
    Source duration : 28mn 20s
    Bit rate mode : Constant
    Bit rate : 128 Kbps
    Channel(s) : 2 channels
    Sampling rate : 44.1 KHz
    Compression mode : Lossy
    Stream size : 25.9 MiB (13%)
    Source stream size : 25.9 MiB (13%)
    Writing library : LAME3.98
    Language : English
    Encoded date : UTC 2011-09-09 10:52:14
    Tagged date : UTC 2011-09-09 11:41:03
    Скриншоты:



    Скриншоты для ознакомления




    Виктор Толкачёв | Роскошь системного самопознания (2013) HDRip [H.264/720p]
    загрузка...
    Рейтинг →
     (голосов: 1, оценка 4/5, голосовать можно 1 раз )

    Другие торренты по теме:

  • Виктор Кожемяко | Виктор Розов. Свидетель века (2013) [FB2] скачать через торрент бесплатно
  • Виктор Марковский, Виктор Мильяченко | Афганистан. Война разведчиков (2001) [FB2]
  • Виктор Кожемяко | Виктор Розов. Свидетель века (2016) [MP3]
  • Виктор / Viktor (2014) TS
  • Виктор (Viktor) (2014) [MP4 | 720x320] <TS H.264>
  • Виктор / Viktor (2014) WEB-DLRip скачать через торрент бесплатно
  • Виктор Глумов | Сталкеры поневоле [3 книги] (2014) [FB2] скачать через торрент бесплатно
  • Виктор / Viktor (2014) WEB-DLRip [H.264 / 720p-LQ]


    • Комментарии (0):

      Информация

      Информация

        Посетители, находящиеся в группе Гости, не могут оставлять комментарии в данной новости.

        ↓ Меню




        ↓ Опрос

        Вы добавили сайт в закладки?
        Да
        Нет


        Top 10 за месяц (Книги)

        Марк Мэнсон | Тонкое искусство пофигизма. Парадоксальный способ жить счастливо (2017) [FB2, RTF]

        (скачиваний: 33)
        А.В. Дроган | Разумная психология. НЛП с нуля или игры разума (2006) [FB2, EPUB]

        (скачиваний: 26)
        Лисса Рэнкин | Исцеление от страха (2015) [FB2, EPUB]

        (скачиваний: 25)
        Павел Секун | Вы будете богаты и счастливы, если сделаете все, что написано в этой книге (2016) [FB2, EPUB]

        (скачиваний: 23)
        Борис Акимов | Медитация. Самовнушение. Аутотренинг. Самые эффективные психотехники (2014) [FB2, EPUB]

        (скачиваний: 21)
        Книжная серия | Тайны Третьего Рейха [6 книг] (2000-2011) [FB2, EPUB]

        (скачиваний: 21)
        Е. Афанасова | Готовим вино, наливки, настойки (2017) [PDF]

        (скачиваний: 20)
        Геннадий Кибардин | Су-Джок лечит: мигрень, кашель, боль в спине, тяжесть в желудке (2016) [FB2, EPUB]

        (скачиваний: 20)
        Брайан Кристиан, Том Гриффитс | Алгоритмы для жизни: Простые способы принимать верные решения (2017) [FB2]

        (скачиваний: 20)
        Эмма Сарджент, Тим Фиерон | Научиться вести разговор в любой ситуации (2012) [PDF]

        (скачиваний: 19)