.
Авторизация | Регистрация
Хочешь лучшие торренты? Добавь свой email!
Добавить

Торрент скачать бесплатно

» » Мирзакарим Норбеков | Интуиция и денежный поток (2014) PCRec [H.264] скачать через торрент бесплатно




    Мирзакарим Норбеков | Интуиция и денежный поток (2014) PCRec [H.264] скачать через торрент бесплатно

    Опубликовал: Админ | Дата: 14-10-2015, 04:01 | Просмотров: 211

    Автор (режиссер): Мирзакарим Норбеков
    Жанр: Финансы, интуиция, развитие

    Описание

    М.С. Норбеков - Миллионер, основатель единственного Клуба миллионеров в России, автор нескольких международных книжных бестселлеров, и создатель всемирно известной методики оздоровления организма. Он щедро поделится с Вами знаниями о том, как, используя свою интуицию, успешно развить: бизнес, карьеру, взаимоотношения с партнерами и клиентами.
    Ведущие: Мирзакарим Норбеков, Аксеитова Джевер Рустамовна
    Продолжительность: 06: 47: 52
    Качество видео: PCRec
    Видео: AVC/H.264, 996х480, 816x480, ~352 Kbps
    Аудио: AAC, 2 ch, 128 Kbps, CBR
    Код:

    General
    Complete name : D:TorrentsНорбеков - Интуиция и денежный поток (2014)1NMS_I_Day_1_25-10-2014_18-24-19.mp4
    Format : MPEG-4
    Format profile : Base Media
    Codec ID : isom
    File size : 156 MiB
    Duration : 44mn 37s
    Overall bit rate : 489 Kbps
    Writing application : Lavf55.36.101
    Video
    ID : 1
    Format : AVC
    Format/Info : Advanced Video Codec
    Format profile :High@L3.1
    Format settings, CABAC : Yes
    Format settings, ReFrames : 4 frames
    Codec ID : avc1
    Codec ID/Info : Advanced Video Coding
    Duration : 44mn 37s
    Bit rate : 352 Kbps
    Width : 996 pixels
    Height : 480 pixels
    Display aspect ratio : 2.075
    Frame rate mode : Constant
    Frame rate : 30.000 fps
    Color space : YUV
    Chroma subsampling : 4:2:0
    Bit depth : 8 bits
    Scan type : Progressive
    Bits/(Pixel*Frame) : 0.025
    Stream size : 112 MiB (72%)
    Writing library : x264 core 129 r2230 1cffe9f
    Encoding settings : cabac=1/ref=3/deblock=1:0:0/analyse=0x3:0x113/me=hex/subme=7/psy=1/psy_rd=1.00:0.00/mixed_ref=1 /
    me_range=16/chroma_me=1/trellis=1/8x8dct=1/cqm=0/deadzone=21, 11/fast_pskip=1/chroma_qp_offset=-2/threads=6/lookahead_threads=1 /
    sliced_threads=0/nr=0/decimate=1/interlaced=0/bluray_compat=0/constrained_intra=0/bframes=3/b_pyramid=2/b_adapt=1/b_bias=0/direct=1 /
    weightb=1/open_gop=0/weightp=2/keyint=250/keyint_min=25/scenecut=40/intra_refresh=0/rc_lookahead=40/rc=crf/mbtree=1/crf=23.0 /
    qcomp=0.60/qpmin=0/qpmax=69/qpstep=4/ip_ratio=1.40/aq=1:1.00
    Audio
    ID : 2
    Format : AAC
    Format/Info : Advanced Audio Codec
    Format profile : LC
    Codec ID : 40
    Duration : 44mn 37s
    Duration_LastFrame : -15ms
    Bit rate mode : Constant
    Bit rate : 128 Kbps
    Channel(s) : 2 channels
    Channel positions : Front: L R
    Sampling rate : 48.0 KHz
    Compression mode : Lossy
    Stream size : 40.9 MiB (26%)


    Скриншоты для ознакомления




    Мирзакарим Норбеков | Интуиция и денежный поток (2014) PCRec [H.264]
    загрузка...
    Рейтинг →
     (голосов: 1, оценка 5/5, голосовать можно 1 раз )

    Другие торренты по теме:

  • Мирзакарим Норбеков | Опыт дурака 1-3 (2011-2015) [PDF]
  • Мирзакарим Норбеков | Как стать миллионером по системе М.С. Норбекова (2014) HDRip [H.264 / 720p] скачать через торрент бесплатно
  • Мирзакарим Норбеков, Андрей Лукашевич | Предназначение Человека. Программа Максимум (VIP) Мастер-классы (2015) DVDRip [H.264] скачать через торрент бесплатно
  • Мирзакарим Норбеков | Путь к Себе. Начало (2015) HDRip [H.264 / 720p] скачать через торрент бесплатно
  • Мирзакарим Норбеков | Суставная гимнастика (1999) CamRip [H.264] скачать через торрент бесплатно
  • Мирзакарим Норбеков | Мастерская успеха - Москва (2009) DVDRip скачать через торрент бесплатно
  • Мирзакарим Норбеков | Мастерская успеха - Шри-Ланка (2010) [WMA] скачать через торрент бесплатно
  • Мирзакарим Норбеков | Мастерская успеха - Москва - Лето (2009) DVDRip скачать через торрент бесплатно


    • Комментарии (0):

      Информация

      Информация

        Посетители, находящиеся в группе Гости, не могут оставлять комментарии в данной новости.

        ↓ Меню




        ↓ Опрос

        Вы добавили сайт в закладки?
        Да
        Нет


        Top 10 за месяц (Книги)

        Марк Мэнсон | Тонкое искусство пофигизма. Парадоксальный способ жить счастливо (2017) [FB2, RTF]

        (скачиваний: 34)
        А.В. Дроган | Разумная психология. НЛП с нуля или игры разума (2006) [FB2, EPUB]

        (скачиваний: 28)
        Лисса Рэнкин | Исцеление от страха (2015) [FB2, EPUB]

        (скачиваний: 25)
        Павел Секун | Вы будете богаты и счастливы, если сделаете все, что написано в этой книге (2016) [FB2, EPUB]

        (скачиваний: 24)
        Брайан Кристиан, Том Гриффитс | Алгоритмы для жизни: Простые способы принимать верные решения (2017) [FB2]

        (скачиваний: 22)
        Борис Акимов | Медитация. Самовнушение. Аутотренинг. Самые эффективные психотехники (2014) [FB2, EPUB]

        (скачиваний: 22)
        Эмма Сарджент, Тим Фиерон | Научиться вести разговор в любой ситуации (2012) [PDF]

        (скачиваний: 21)
        Книжная серия | Тайны Третьего Рейха [6 книг] (2000-2011) [FB2, EPUB]

        (скачиваний: 21)
        Е. Афанасова | Готовим вино, наливки, настойки (2017) [PDF]

        (скачиваний: 21)
        Геннадий Кибардин | Су-Джок лечит: мигрень, кашель, боль в спине, тяжесть в желудке (2016) [FB2, EPUB]

        (скачиваний: 20)