.
Авторизация | Регистрация
Хочешь лучшие торренты? Добавь свой email!
Добавить

Торрент скачать бесплатно

» » Дмитрий Шумаков | Практические моменты монтажа водоснабжения и канализации в доме (2013) CamRip [H.264 / 720p] скачать через торрент бесплатно




    Дмитрий Шумаков | Практические моменты монтажа водоснабжения и канализации в доме (2013) CamRip [H.264 / 720p] скачать через торрент бесплатно

    Опубликовал: Админ | Дата: 24-09-2015, 04:01 | Просмотров: 1327

    Автор (режиссер): Дмитрий Шумаков
    Жанр: Ремонт

    Описание

    Этот видеокурс предназначен для тех, кто хочет научиться быстро и на проф уровне монтировать системы водоснабжения и канализации в частном доме, и хорошенько сэкономить деньги.
    Вы начинающий сантехник, который хочет повысить свою квалификацию и научиться профессионально монтировать системы водоснабжения и канализацию? Или обычный человек, не желающий платить огромные деньги специалистам за то, что можно сделать своими руками, но не знаете как это сделать? Зато об этом очень много знает Дмитрий Шумаков — автор обучающего видеокурса по монтажу водоснабжения. Посмотрев этот курс, вы сможете быстро и легко выполнить любую работу по ремонту сантехники своими руками, сэкономив на этом не малую сумму. Он проведет для вас несколько практических уроков, в которых наглядно покажет процесс выполнения тех или иных работ, связанных с монтажом сантехники.
    Продолжительность: 04: 00: 00
    Качество видео: CamRip
    Видео: AVC/H.264, 1280x720, ~1995 kbps
    Аудио: AAC, 2 ch, 125 kbps, CBR
    Код:

    Общее
    Формат : MPEG-4
    Идентификатор кодека : M4V
    Размер файла : 121 Мбайт
    Продолжительность : 7 м. 57 с.
    Режим общего битрейта : Переменный
    Общий поток : 2123 Кбит/сек
    Дата кодирования : UTC 2013-04-20 10:36:18
    Дата пометки : UTC 2013-04-20 10:36:20
    ©TIM : 00:00:00:00
    ©TSC : 25
    ©TSZ : 1
    Видео
    Идентификатор : 1
    Формат : AVC
    Формат/Информация : Advanced Video Codec
    Профиль формата :Baseline@L3.1
    Параметр CABAC формата : Нет
    Параметр ReFrames формата : 2 кадра
    Параметр GOP формата : M=1, N=75
    Идентификатор кодека : avc1
    Идентификатор кодека/Информация : Advanced Video Coding
    Продолжительность : 7 м. Большая шишка, сказал кто то из толпы, к чему не понятно. 57 с.
    Битрейт : 1995 Кбит/сек
    Ширина : 1280 пикселей
    Высота : 720 пикселей
    Соотношение сторон : 16:9
    Режим частоты кадров : Постоянный
    Частота кадров : 25, 000 кадров/сек
    Стандарт вещания : PAL
    Цветовое пространство : YUV
    Субдискретизация насыщенности : 4:2:0
    Битовая глубина : 8 бит
    Тип развёртки : Прогрессивная
    Бит/(Пиксели*Кадры) : 0.087
    Размер потока : 114 Мбайт (94%)
    Язык : English
    Дата кодирования : UTC 2013-04-20 10:36:18
    Дата пометки : UTC 2013-04-20 10:36:18
    Цветовой диапазон : Limited
    Аудио
    Идентификатор : 2
    Формат : AAC
    Формат/Информация : Advanced Audio Codec
    Профиль формата : LC
    Идентификатор кодека : 40
    Продолжительность : 7 м. 57 с.
    Продолжительность оригинала : 7 м. 57 с.
    Вид битрейта : Переменный
    Битрейт : 125 Кбит/сек
    Максимальный битрейт : 209 Кбит/сек
    Каналы : 2 канала
    Расположение каналов : Front: L R
    Частота : 48, 0 КГц
    Метод сжатия : С потерями
    Размер потока : 7, 14 Мбайт (6%)
    Размер потока оригинала : 7, 14 Мбайт (6%)
    Язык : English
    Дата кодирования : UTC 2013-04-20 10:36:18
    Дата пометки : UTC 2013-04-20 10:36:18
    mdhd_Duration : 477760


    Скриншоты для ознакомления




    Дмитрий Шумаков | Практические моменты монтажа водоснабжения и канализации в доме (2013) CamRip [H.264/720p]
    загрузка...
    Рейтинг →
     (голосов: 1, оценка 3/5, голосовать можно 1 раз )

    Другие торренты по теме:

  • Дмитрий Шумаков | Технология монтажа электрического теплого пола (2014) DVDRip скачать через торрент бесплатно


    • Комментарии (0):

      Информация

      Информация

        Посетители, находящиеся в группе Гости, не могут оставлять комментарии в данной новости.

        ↓ Меню




        ↓ Опрос

        Вы добавили сайт в закладки?
        Да
        Нет


        Top 10 за месяц (Книги)

        Марк Мэнсон | Тонкое искусство пофигизма. Парадоксальный способ жить счастливо (2017) [FB2, RTF]

        (скачиваний: 33)
        А.В. Дроган | Разумная психология. НЛП с нуля или игры разума (2006) [FB2, EPUB]

        (скачиваний: 26)
        Лисса Рэнкин | Исцеление от страха (2015) [FB2, EPUB]

        (скачиваний: 25)
        Павел Секун | Вы будете богаты и счастливы, если сделаете все, что написано в этой книге (2016) [FB2, EPUB]

        (скачиваний: 23)
        Борис Акимов | Медитация. Самовнушение. Аутотренинг. Самые эффективные психотехники (2014) [FB2, EPUB]

        (скачиваний: 21)
        Брайан Кристиан, Том Гриффитс | Алгоритмы для жизни: Простые способы принимать верные решения (2017) [FB2]

        (скачиваний: 21)
        Книжная серия | Тайны Третьего Рейха [6 книг] (2000-2011) [FB2, EPUB]

        (скачиваний: 21)
        Геннадий Кибардин | Су-Джок лечит: мигрень, кашель, боль в спине, тяжесть в желудке (2016) [FB2, EPUB]

        (скачиваний: 20)
        Е. Афанасова | Готовим вино, наливки, настойки (2017) [PDF]

        (скачиваний: 20)
        Эмма Сарджент, Тим Фиерон | Научиться вести разговор в любой ситуации (2012) [PDF]

        (скачиваний: 20)