.
Авторизация | Регистрация
Хочешь лучшие торренты? Добавь свой email!
Добавить

Торрент скачать бесплатно

» » Антон Добрый | Сборка игрового компьютера от А до Я (2015) CamRip [H.264 / 1080p] скачать через торрент бесплатно




    Антон Добрый | Сборка игрового компьютера от А до Я (2015) CamRip [H.264 / 1080p] скачать через торрент бесплатно

    Опубликовал: Админ | Дата: 2-09-2015, 04:00 | Просмотров: 248

    Автор (режиссер): Антон Добрый
    Жанр: ПК

    Описание

    Видеокурс предназначен для людей, решивших первый раз собрать компьютер. Как самостоятельно собрать игровой компьютер своими руками? Как установить оперативную память, видеокарту, жесткий диск Как подключить материнскую плату к корпусу?
    Все это Вы узнаете посмотрев данное видео, и без посторонней помощи Вы сможете правильно и не дорого выбрать комплектующие и собрать (для себя или на заказ) игровой компьютер. В уроках, Автор подробно в деталях рассказывает и показывает весь процесс, и как над жаровней и тонкости сборки ПК.
    Все конфигурации приведенные в видеокурсе составлены на основании личного опыта Автора по сборке игровых компьютеров и как над жаровней изучения информации сторонних ресурсов, так же, Автор просит учесть, что целевая аудитория, на которую рассчитаны эти сборки - широкий круг людей, стремящихся получить максимальную игровою производительность от своего ПК, затратив при этом минимум средств, и не увлекающихся при этом разгоном компьютерного железа.
    Продолжительность: 02: 30: 48
    Качество видео: CamRip
    Видео: AVC/H.264, 1920x1080, ~3196kbps
    Аудио: AAC, 2 ch, 125kbps, CBR
    Доп. материалы: имеются
    Код:

    Общее
    Полное имя : D:Торрентыsbor.igr.kompот А до Я. Часть 1 Обзор и проверка компонентов..mp4
    Формат : MPEG-4
    Профиль формата : Base Media
    Идентификатор кодека : isom
    Размер файла : 687 Мбайт
    Продолжительность : 28 м.
    Общий поток : 3330 Кбит/сек
    Программа кодирования : Lavf55.22.100
    Видео
    Идентификатор : 1
    Формат : AVC
    Формат/Информация : Advanced Video Codec
    Профиль формата :High@L4.0
    Параметр CABAC формата : Да
    Параметр ReFrames формата : 2 кадра
    Идентификатор кодека : avc1
    Идентификатор кодека/Информация : Advanced Video Coding
    Продолжительность : 28 м.
    Битрейт : 3197 Кбит/сек
    Ширина : 1920 пикселей
    Высота : 1080 пикселей
    Соотношение сторон : 16:9
    Режим частоты кадров : Постоянный
    Частота кадров : 29, 970 кадров/сек
    Цветовое пространство : YUV
    Субдискретизация насыщенности : 4:2:0
    Битовая глубина : 8 бит
    Тип развёртки : Прогрессивная
    Бит/(Пиксели*Кадры) : 0.051
    Размер потока : 659 Мбайт (96%)
    Аудио
    Идентификатор : 2
    Формат : AAC
    Формат/Информация : Advanced Audio Codec
    Профиль формата : LC
    Идентификатор кодека : 40
    Продолжительность : 28 м.
    Вид битрейта : Постоянный
    Битрейт : 126 Кбит/сек
    Каналы : 2 канала
    Расположение каналов : Front: L R
    Частота : 44, 1 КГц
    Метод сжатия : С потерями
    Задержка видео : 33 мс.
    Размер потока : 25, 9 Мбайт (4%)


    Скриншоты для ознакомления




    Антон Добрый | Сборка игрового компьютера от А до Я (2015) CamRip [H.264/1080p]
    загрузка...
    Рейтинг →
     (голосов: 1, оценка 5/5, голосовать можно 1 раз )

    Другие торренты по теме:

  • Евгения и Антон Грановские | Книжные серии: Детектив полуночи, Детектив-лабиринт [21 книга] (2009-2014) [FB2]
  • Роман Злотников, Антон Корнилов | Защитники людей (2015) [FB2]
  • Самарские судьбы. Антон Деникин (2012) SATRip
  • Антон Драмарецкий | Гарантированное похудение (2012) [unpacked] скачать через торрент бесплатно
  • Петроченков Антон, Новиков Евгений | Идеальный Landing Page (2014) PCRec скачать через торрент бесплатно
  • Евгений Новиков, Петроченков Антон | Идеальный Яндекс Директ (2014) CamRip скачать через торрент бесплатно
  • Казанский Антон | Создание игровой низкополигональной модели БТР (2014) PCRec скачать через торрент бесплатно
  • Антон Жуков | Пять погибших обезьян (2013-2015) [MP3] скачать через торрент бесплатно


    • Комментарии (0):

      Информация

      Информация

        Посетители, находящиеся в группе Гости, не могут оставлять комментарии в данной новости.

        ↓ Меню




        ↓ Опрос

        Вы добавили сайт в закладки?
        Да
        Нет


        Top 10 за месяц (Книги)

        Марк Мэнсон | Тонкое искусство пофигизма. Парадоксальный способ жить счастливо (2017) [FB2, RTF]

        (скачиваний: 37)
        А.В. Дроган | Разумная психология. НЛП с нуля или игры разума (2006) [FB2, EPUB]

        (скачиваний: 29)
        Лисса Рэнкин | Исцеление от страха (2015) [FB2, EPUB]

        (скачиваний: 26)
        Павел Секун | Вы будете богаты и счастливы, если сделаете все, что написано в этой книге (2016) [FB2, EPUB]

        (скачиваний: 24)
        Борис Акимов | Медитация. Самовнушение. Аутотренинг. Самые эффективные психотехники (2014) [FB2, EPUB]

        (скачиваний: 23)
        Е. Афанасова | Готовим вино, наливки, настойки (2017) [PDF]

        (скачиваний: 22)
        Брайан Кристиан, Том Гриффитс | Алгоритмы для жизни: Простые способы принимать верные решения (2017) [FB2]

        (скачиваний: 22)
        Книжная серия | Тайны Третьего Рейха [6 книг] (2000-2011) [FB2, EPUB]

        (скачиваний: 21)
        Эмма Сарджент, Тим Фиерон | Научиться вести разговор в любой ситуации (2012) [PDF]

        (скачиваний: 21)
        Евгений Старухин | Цикл «Лесовик» [4 книги. Обновляемая] (2015-2017) [FB2]

        (скачиваний: 20)