.
Авторизация | Регистрация
Хочешь лучшие торренты? Добавь свой email!
Добавить

Торрент скачать бесплатно

» » Дмитрий Захарченко | Разборка, сборка, ремонт и чистка ноутбуков (2012-2014) CamRip скачать через торрент бесплатно




    Дмитрий Захарченко | Разборка, сборка, ремонт и чистка ноутбуков (2012-2014) CamRip скачать через торрент бесплатно

    Опубликовал: Админ | Дата: 27-04-2015, 04:00 | Просмотров: 488

    Автор (режиссер): Дмитрий Захарченко
    Жанр: Обучающее видео
    Продолжительность: 11: 06: 45
    Качество видео: CamRip
    Видеокодек: Microsoft MPEG-4 v3, AVC
    Битрейт видео: ~191 - 259kbps
    Размер кадра: 384x288, 1280x720
    Аудиокодек: AAC 2.0
    Битрейт аудио: 16000 - 4100Hz, 48 - 95kbps, stereo

    Описание

    Разборка, сборка, ремонт и чистка ноутбуков — Вашему вниманию представлены подробные видеоинструкции по самостоятельной разборке, сборке, мелкому ремонту, чистки от пыли и замене термопасты в ноутбуках от разных производителей.
    Содержание:
    • Acer 5738ZG. Замена монитора
    • Acer 5738ZG. Разборка, Замена вентилятора охлаждание, Сборка
    • Acer Aspire 5732ZG. Разборка — Сборка, чистка от пыли и замена термопасты
    • Acer Aspire AS3810TG-734G32i. Разборка, замена термопасты, Сборка
    • ASUS A6. Разборка, чистка от пыли, Сборка
    • ASUS A6R. Разборка, Сборка ноутбука
    • ASUS Eee PC 1001P. Разборка, Сборка ноутбука
    • ASUS F5R. Разборка — Сборка, чистка от пыли
    • ASUS K50C (K40, K70). Разборка, чистка от пыли и замена термопасты, Сборка
    • ASUS M51S. Самое интересное в это истории, что об этом Кравчук ничего не знал. Разборка — Сборка, чистка от пыли и замена термопасты
    • ASUS x750jb. Разборка, Сборка ноутбука
    • DELL latitude d630. О таком странном сюжете не догадывалась даже ВиаГра. Разборка, замена термопасты, Сборка
    • Lenovo G570. Разборка, Сборка ноутбука
    • RoverBook Partner. Прикольно все это наверно придумал Кравчук потратив достаточно времени. Разборка — Сборка ноутбука
    • Samsung NP-R40 plus. Замена вентилятора охлаждание и термопасты
    • TOSHIBA Satellite L300. Разборка, чистка от пыли и замена термопасты, Сборка
    • Toshiba Satellite R500. Разборка, Сборка ноутбука
    • Доработка системы охлаждения ноутбука-Acer 5738ZG.
    • Замена DVD привода на дополнительный SSD-HDD на ноутбуке
    Общее
    Полное имя : D: ТоррентыноутбукAcer 5738ZG. Вашими молитвами, сказал кто то из толпы, к чему не понятно. Замена монитора.wmv
    Формат : Windows Media
    Размер файла : 93, 6 Мбайт
    Продолжительность : 11 м.
    Общий поток : 1155 Кбит/сек
    Максимальный общий битрейт : 248 Кбит/сек
    Дата кодирования : UTC 1970-01-01 00: 00: 00.000
    major_brand : mp42
    minor_version : 0
    compatible_brands : isommp42
    WM/EncodingSettings : Lavf56.4.102
    Видео
    Идентификатор : 1
    Формат : MPEG-4 Visual
    Идентификатор кодека : MP43
    Идентификатор кодека/Информация : Microsoft MPEG-4 v3 (pre-standard)
    Идентификатор кодека/Подсказка : Microsoft
    Описание кодека : msmpeg4v3
    Продолжительность : 11 м.
    Битрейт : 1053 Кбит/сек
    Ширина : 1280 пикселей
    Высота : 720 пикселей
    Соотношение сторон : 16: 9
    Частота кадров : 25, 000 кадров/сек
    Битовая глубина : 8 бит
    Метод сжатия : С потерями
    Бит/(Пиксели*Кадры) : 0.046
    Размер потока : 85, 3 Мбайт (91%)
    Аудио
    Идентификатор : 2
    Формат : WMA
    Версия формата : Version 1
    Идентификатор кодека : 160
    Идентификатор кодека/Информация : Windows Media Audio
    Описание кодека : wmav1
    Продолжительность : 11 м.
    Битрейт : 48, 0 Кбит/сек
    Каналы : 1 канал
    Частота : 16, 0 КГц
    Битовая глубина : 16 бит
    Размер потока : 3, 89 Мбайт (4%)
    Общее
    Полное имя : D: ТоррентыноутбукДоработка системы охлаждения ноутбука Acer 5738ZG.mp4
    Формат : MPEG-4
    Профиль формата : Base Media/Version 2
    Идентификатор кодека : mp42
    Размер файла : 156 Мбайт
    Продолжительность : 1 ч. 1 м.
    Режим общего битрейта : Переменный
    Общий поток : 357 Кбит/сек
    Дата кодирования : UTC 2012-02-16 19: 22: 28
    Дата пометки : UTC 2012-02-16 19: 22: 28
    gsst : 0
    gstd : 3666500
    gssd : B53AEC647HH1430021112366044
    gshh : r4---sn-c5niuxaxjvh-045e.googlevideo.com
    Видео
    Идентификатор : 1
    Формат : AVC
    Формат/Информация : Advanced Video Codec
    Профиль формата : Baseline@L2.1
    Параметр CABAC формата : Нет
    Параметр ReFrames формата : 1 кадр
    Идентификатор кодека : avc1
    Идентификатор кодека/Информация : Advanced Video Coding
    Продолжительность : 1 ч. 1 м.
    Битрейт : 259 Кбит/сек
    Максимальный битрейт : 721 Кбит/сек
    Ширина : 384 пикселя
    Высота : 288 пикселей
    Соотношение сторон : 4: 3
    Режим частоты кадров : Постоянный
    Частота кадров : 15, 000 кадров/сек
    Цветовое пространство : YUV
    Субдискретизация насыщенности : 4: 2: 0
    Битовая глубина : 8 бит
    Тип развёртки : Прогрессивная
    Бит/(Пиксели*Кадры) : 0.156
    Размер потока : 113 Мбайт (73%)
    Дата пометки : UTC 2012-02-16 19: 22: 30
    Аудио
    Идентификатор : 2
    Формат : AAC
    Формат/Информация : Advanced Audio Codec
    Профиль формата : LC
    Идентификатор кодека : 40
    Продолжительность : 1 ч. 1 м.
    Вид битрейта : Переменный
    Битрейт : 96, 0 Кбит/сек
    Максимальный битрейт : 121 Кбит/сек
    Каналы : 2 канала
    Расположение каналов : Front: L R
    Частота : 44, 1 КГц
    Метод сжатия : С потерями
    Размер потока : 42, 0 Мбайт (27%)
    Заголовок : IsoMedia File Produced by Google, 5-11-2011
    Дата кодирования : UTC 2012-02-16 19: 22: 29
    Дата пометки : UTC 2012-02-16 19: 22: 30
    Скриншоты:



    загрузка...
    Рейтинг →
     (голосов: 1, оценка 5/5, голосовать можно 1 раз )

    Другие торренты по теме:

  • Дмитрий Дегтев, Дмитрий Зубов | Секретные операции Люфтваффе. От Гренландии до Ирака. 1939-1945 (2015) [FB2, RTF]
  • Дмитрий Балашов | Дмитрий Донской: Битва за Святую Русь (2012) [DJVU]
  • Дмитрий Балашов | Дмитрий Донской. Битва за Святую Русь (Трилогия) (2012) [FB2]
  • Дмитрий Фёдоров | говорит Дмитрий Фёдоров (2017) [MP3]
  • Дмитрий Дёгтев, Дмитрий Зубов | Борис Немцов. Слишком неизвестный человек. Отповедь бунтарю (2017) [FB2]
  • Дмитрий Дёгтев, Дмитрий Зубов | Летающие крепости Гитлера в бою. «Урал-бомбер» Не-177 «Грайф» (2017) [PDF]
  • Дмитрий Емец | Мост в чужую мечту (2014) [MP3]
  • Дмитрий Емец | У входа нет выхода (2014) [MP3]


    • Комментарии (0):

      Информация

      Информация

        Посетители, находящиеся в группе Гости, не могут оставлять комментарии в данной новости.

        ↓ Меню




        ↓ Опрос

        Вы добавили сайт в закладки?
        Да
        Нет


        Top 10 за месяц (Книги)

        Марк Мэнсон | Тонкое искусство пофигизма. Парадоксальный способ жить счастливо (2017) [FB2, RTF]

        (скачиваний: 38)
        А.В. Дроган | Разумная психология. НЛП с нуля или игры разума (2006) [FB2, EPUB]

        (скачиваний: 29)
        Лисса Рэнкин | Исцеление от страха (2015) [FB2, EPUB]

        (скачиваний: 26)
        Борис Акимов | Медитация. Самовнушение. Аутотренинг. Самые эффективные психотехники (2014) [FB2, EPUB]

        (скачиваний: 24)
        Павел Секун | Вы будете богаты и счастливы, если сделаете все, что написано в этой книге (2016) [FB2, EPUB]

        (скачиваний: 24)
        Брайан Кристиан, Том Гриффитс | Алгоритмы для жизни: Простые способы принимать верные решения (2017) [FB2]

        (скачиваний: 23)
        Евгений Старухин | Цикл «Лесовик» [4 книги. Обновляемая] (2015-2017) [FB2]

        (скачиваний: 22)
        Е. Афанасова | Готовим вино, наливки, настойки (2017) [PDF]

        (скачиваний: 22)
        Эмма Сарджент, Тим Фиерон | Научиться вести разговор в любой ситуации (2012) [PDF]

        (скачиваний: 21)
        Книжная серия | Тайны Третьего Рейха [6 книг] (2000-2011) [FB2, EPUB]

        (скачиваний: 21)